Скачать через торрент музыку Paper Bubble - Scenery бесплатно без регистрации torrent

Если у вас наблюдаются проблемы со скриншотами, переходом по ссылками, скачиванием торрентов - проблемы в блокировщике рекламы AdBlock. #хорошегоДня!


Статистика раздачи
Размер:  339 MB   |    Зарегистрирован:  4 года 11 месяцев   |    .torrent скачан:  6 раз   |   
Раздают:  1  
   
Загрузка...
 
Автор Сообщение

Galfimbul

avatar Galfimbul


Paper Bubble / Scenery (1970)

Жанр: Folk, Folk-Rock
Страна-производитель диска: UK
Год издания: 2008
Издатель (лейбл): RPM
Номер по каталогу: RETRO 831
Страна: UK
Аудиокодек: FLAC (*.flac)
Тип рипа: image+.cue
Битрейт аудио: lossless
Продолжительность: 43:42
Источник (релизер): CD
Наличие сканов в содержимом раздачи: да
Треклист:
1. Fillin' A Gap
2. Being Human Being
3. She
4. I'm Laughing
5. Just An Actor
6. Energy
7. Scenery
8. MM Of LA
9. Silly Bit Of Sentiment
10. Mother Mother Mother
11. Tomorrow Never Comes Likes A Silver Spoon
Exact Audio Copy V1.0 beta 3 from 29. August 2011

Отчёт EAC об извлечении, выполненном 2. декабря 2012, 13:38

Paper Bubble / Scenery

Дисковод: TSSTcorpCDDVDW TS-L633C Adapter: 1 ID: 0

Режим чтения : ДостоверностьИспользование точного потока : ДаОтключение кэша аудио : ДаИспользование указателей C2 : Нет

Коррекция смещения при чтении : 6Способность читать области Lead-in и Lead-out : НетЗаполнение пропущенных сэмплов тишиной : ДаУдаление блоков с тишиной в начале и конце : НетПри вычислениях CRC использовались нулевые сэмплы : ДаИнтерфейс : Встроенный Win32-интерфейс для Win NT/2000

Выходной формат : Пользовательский кодировщикВыбранный битрейт : 128 kBit/sКачество : ВысокийДобавление ID3-тега : НетУтилита сжатия : C:\Program Files (x86)\Exact Audio Copy\Flac\flac.exeДополнительные параметры : -V -8 -T "Date=%year%" -T "Genre=%genre%" %source%

TOC извлечённого CD

Трек | Старт | Длительность | Начальный сектор | Конечный сектор --------------------------------------------------------------------- 1 | 0:00.00 | 3:17.59 | 0 | 14833 2 | 3:17.59 | 3:16.70 | 14834 | 29603 3 | 6:34.54 | 4:35.74 | 29604 | 50302 4 | 11:10.53 | 3:09.52 | 50303 | 64529 5 | 14:20.30 | 2:26.31 | 64530 | 75510 6 | 16:46.61 | 6:46.20 | 75511 | 105980 7 | 23:33.06 | 5:23.38 | 105981 | 130243 8 | 28:56.44 | 3:38.25 | 130244 | 146618 9 | 32:34.69 | 3:14.58 | 146619 | 161226 10 | 35:49.52 | 3:08.51 | 161227 | 175377 11 | 38:58.28 | 4:42.04 | 175378 | 196531

Характеристики диапазона извлечения и сообщения об ошибках

Выбранный диапазон

Имя файла C:\Paper Bubble 1969 Scenery\Paper Bubble - Scenery.wav

Пиковый уровень 98.8 % Скорость извлечения 3.3 X Качество диапазона 100.0 % CRC теста FFFC7ED0 CRC копии FFFC7ED0 Копирование... OK

Ошибок не произошло

Конец отчёта

==== Контрольная сумма отчёта 68333E8B8821F5236484A376D812AC495518DAEA87DE655288130C5984E01A58 ====
Единственный альбом группы "Paper Bubble" записан в 1969 году, вышел в свет в марте 1970. Исполняли симпатичный, но достаточно традиционный фолк и фолк-рок.
Альбом интересен прежде всего поклонникам группы "Strawbs", так как продюсерами были Dave Cousins и Tony Hooper, а в записи принимали участие Richard Hudson, John Ford и Rick Wakeman, которые спустя полгода вошли в состав "Strawbs".
Группа просуществовала до конца 1971 года, был записан второй альбом, причем тем же составом, но он так и не вышел. Возникавшие ненадолго реинкарнации в период до 1980 года участвовали в качестве разогревающей группы на концертах у "Strawbs", "Thin Lizzy", Ralph McTell, "Pentangle". С 1980 до 1994 года Brian Crane занимался преподаванием сценического искусства, вел свою фолк группу "Steelbreeze", а также выступал сольно. С 1994 года сосредоточился на преподавательской деятельности.
Terry Brake - guitar, vocal
Brian Crane - guitar, vocal
Neil Mitchell - bass
+
Dave Cousins, Tony Hooper, Richard Hudson, John Ford, Rick Wakeman


Трекер:  [ 09-Дек-2012 15:36 ]

  

Скачать .torrent

Размер .torrent файла 14 KB


Размер: 339 MB
Хэш (hash) релиза: c4b43ca296dd38b84fd4a2cfb5651c61917c0800

Еще никто не оставлял запись к записи скачать торрент Paper Bubble - Scenery . Будь первым!

!Обратная связь