Скачать через торрент музыку VA - Various ‎– Rock Summer 2012 - 2012, FLAC бесплатно без регистрации torrent

Если у вас наблюдаются проблемы со скриншотами, переходом по ссылками, скачиванием торрентов - проблемы в блокировщике рекламы AdBlock. #хорошегоДня!


Статистика раздачи
Размер:  289 MB   |    Зарегистрирован:  4 года 11 месяцев   |    .torrent скачан:  4 раза   |   
Раздают:  1  
   
Загрузка...
 
Автор Сообщение

Galfimbul

avatar Galfimbul


Various ‎– Rock Summer 2012

Жанр: Classic Rock
Страна-производитель диска: Germany
Год издания: 2012
Издатель (лейбл): Sony Music
Номер по каталогу: 88725443562
Аудиокодек: FLAC (*.flac)
Тип рипа: image+.cue
Битрейт аудио: lossless
Продолжительность: 00:40:47
Источник (релизер): Личный СД
Наличие сканов в содержимом раздачи: Да
Треклист:
01. Ozzy Osbourne – Let Me Hear You Scream (Live) 3:21
02. Europe – The Final Countdown 5:10
03. Mott The Hoople – All The Young Dudes 3:34
04. Blue Öyster Cult – (Don't Fear) The Reaper 5:08
05. Alice Cooper – Poison 4:31
06. Survivor – Burning Heart 3:52
07. Kansas – Dust In The Wind 3:28
09. Ram Jam – Black Betty 3:58
10. Korn – Hey Daddy 3:43
Exact Audio Copy V1.0 beta 3 from 29. August 2011

Отчёт EAC об извлечении, выполненном 2. декабря 2012, 17:10

- / Rock Summer 2012

Дисковод: PIONEER BD-RW BDR-207D Adapter: 2 ID: 1

Режим чтения : ДостоверностьИспользование точного потока : ДаОтключение кэша аудио : ДаИспользование указателей C2 : Нет

Коррекция смещения при чтении : 667Способность читать области Lead-in и Lead-out : НетЗаполнение пропущенных сэмплов тишиной : ДаУдаление блоков с тишиной в начале и конце : НетПри вычислениях CRC использовались нулевые сэмплы : ДаИнтерфейс : Встроенный Win32-интерфейс для Win NT/2000

Выходной формат : Пользовательский кодировщикВыбранный битрейт : 1024 kBit/sКачество : ВысокийДобавление ID3-тега : НетУтилита сжатия : C:\Program Files\Exact Audio Copy\Flac\flac.exeДополнительные параметры : -V -8 -T "Date=%year%" -T "Genre=%genre%" %source%

TOC извлечённого CD

Трек | Старт | Длительность | Начальный сектор | Конечный сектор --------------------------------------------------------------------- 1 | 0:00.00 | 3:21.08 | 0 | 15082 2 | 3:21.08 | 5:10.63 | 15083 | 38395 3 | 8:31.71 | 3:34.40 | 38396 | 54485 4 | 12:06.36 | 5:08.19 | 54486 | 77604 5 | 17:14.55 | 4:31.26 | 77605 | 97955 6 | 21:46.06 | 3:52.05 | 97956 | 115360 7 | 25:38.11 | 3:58.34 | 115361 | 133244 8 | 29:36.45 | 3:28.14 | 133245 | 148858 9 | 33:04.59 | 3:58.65 | 148859 | 166773 10 | 37:03.49 | 3:43.33 | 166774 | 183531

Характеристики диапазона извлечения и сообщения об ошибках

Выбранный диапазон

Имя файла M:\Раздачи Rodexx\Various ‎– Rock Summer 2012\Rock Summer 2012.wav

Пиковый уровень 99.3 % Скорость извлечения 6.6 X Качество диапазона 100.0 % CRC теста 3E87ADD6 CRC копии 3E87ADD6 Копирование... OK

Ошибок не произошло

AccurateRip: сводка

Трек 1 : извлечено точно (доверие 1) [DACD95EF] (AR v2)Трек 2 : извлечено точно (доверие 1) [E50145A8] (AR v2)Трек 3 : извлечено точно (доверие 1) [8804B3DA] (AR v2)Трек 4 : извлечено точно (доверие 1) [EE8400D6] (AR v2)Трек 5 : извлечено точно (доверие 1) [8234D03E] (AR v2)Трек 6 : извлечено точно (доверие 1) [24382C1B] (AR v2)Трек 7 : извлечено точно (доверие 1) [7120D127] (AR v2)Трек 8 : извлечено точно (доверие 1) [C4DE263D] (AR v2)Трек 9 : извлечено точно (доверие 1) [678CAB26] (AR v2)Трек 10 : извлечено точно (доверие 1) [70AC1FAF] (AR v2)

Все треки извлечены точно

Конец отчёта

==== Контрольная сумма отчёта C7AE6343B218BDC1C113A110F2B13C69ADF1822CD8345E9620B7D932838CA0EF ====


Трекер:  [ 09-Дек-2012 15:36 ]

  

Скачать .torrent

Размер .torrent файла 12 KB


Размер: 289 MB
Хэш (hash) релиза: e72f0147b0abc1d75f9a1961a5725e785977ca8c

Еще никто не оставлял запись к записи скачать торрент VA - Various ‎– Rock Summer 2012 - 2012, FLAC . Будь первым!

!Обратная связь