Скачать через торрент музыку Jody Reynolds - Endless Sleep бесплатно без регистрации torrent

Если у вас наблюдаются проблемы со скриншотами, переходом по ссылками, скачиванием торрентов - проблемы в блокировщике рекламы AdBlock. #хорошегоДня!


Статистика раздачи
Размер:  289 MB   |    Зарегистрирован:  4 года 8 месяцев   |    .torrent скачан:  4 раза   |   
Раздают:  1  
   
Загрузка...
 
Автор Сообщение

Galfimbul

avatar Galfimbul


Jody Reynolds / Endless Sleep

Жанр: Rockabilly
Страна-производитель диска: Germany
Год издания: 1998
Издатель (лейбл): Gee-Dee Music
Номер по каталогу: 270142-2
Страна: USA
Аудиокодек: FLAC (*.flac)
Тип рипа: image+.cue
Битрейт аудио: lossless
Продолжительность: 72:00
Источник (релизер): AUDELAS KINGDOM
Наличие сканов в содержимом раздачи: да

01. Beulah Lee
02. Endless Sleep
03. Tight Capris
04. The Fire of Love
05. (The Girl With The) Raven Hair
06. Thunder
07. A Tear For Jessie
08. Daisy Mae
09. Come On, Twist
10. I'm Left, You're Right, She's Gone
11. Jeannie Mae
12. Tarantula
13. Robbin' The Cradle
14. Baby Let's Play House
15. Long Black Train
16. Anyway You Want Me
17. Blue Moon of Kentucky
18. I Forgot To Remember
19. (Evil Hearted Me) Downright Evil
20. Silhouettes
21. Good Rockin' Tonight
22. Making Out
23. The Whipping Post
24. Blue Suede Shoes
25. Paper Doll
26. I Got a Woman
27. Shot Down
Exact Audio Copy V1.0 beta 2 from 29. April 2011

Отчёт EAC об извлечении, выполненном 2. декабря 2012, 9:11

Jody Reynolds / Endless Sleep

Дисковод: ATAPI iHAS124 B Adapter: 1 ID: 1

Режим чтения : ДостоверностьИспользование точного потока : ДаОтключение кэша аудио : ДаИспользование указателей C2 : Нет

Коррекция смещения при чтении : 6Способность читать области Lead-in и Lead-out : НетЗаполнение пропущенных сэмплов тишиной : ДаУдаление блоков с тишиной в начале и конце : НетПри вычислениях CRC использовались нулевые сэмплы : ДаИнтерфейс : Встроенный Win32-интерфейс для Win NT/2000

Выходной формат : Пользовательский кодировщикВыбранный битрейт : 1024 kBit/sКачество : ВысокийДобавление ID3-тега : НетУтилита сжатия : C:\Program Files\Exact Audio Copy\FLAC\FLAC.EXEДополнительные параметры : -6 -V -T "ARTIST=%artist%" -T "TITLE=%title%" -T "ALBUM=%albumtitle%" -T "DATE=%year%" -T "TRACKNUMBER=%tracknr%" -T "GENRE=%genre%" -T "COMMENT=%comment%" -T "BAND=%albuminterpret%" -T "COMPOSER=%composer%" %haslyrics%--tag-from-

TOC извлечённого CD

Трек | Старт | Длительность | Начальный сектор | Конечный сектор --------------------------------------------------------------------- 1 | 0:00.00 | 2:21.72 | 0 | 10646 2 | 2:21.72 | 2:25.23 | 10647 | 21544 3 | 4:47.20 | 2:04.60 | 21545 | 30904 4 | 6:52.05 | 1:56.47 | 30905 | 39651 5 | 8:48.52 | 2:25.15 | 39652 | 50541 6 | 11:13.67 | 2:29.43 | 50542 | 61759 7 | 13:43.35 | 2:34.45 | 61760 | 73354 8 | 16:18.05 | 1:52.70 | 73355 | 81824 9 | 18:11.00 | 1:42.32 | 81825 | 89506 10 | 19:53.32 | 2:33.55 | 89507 | 101036 11 | 22:27.12 | 2:38.70 | 101037 | 112956 12 | 25:06.07 | 2:10.65 | 112957 | 122771 13 | 27:16.72 | 2:08.28 | 122772 | 132399 14 | 29:25.25 | 1:57.70 | 132400 | 141244 15 | 31:23.20 | 2:36.27 | 141245 | 152971 16 | 33:59.47 | 2:04.13 | 152972 | 162284 17 | 36:03.60 | 2:16.42 | 162285 | 172526 18 | 38:20.27 | 2:56.73 | 172527 | 185799 19 | 41:17.25 | 2:41.72 | 185800 | 197946 20 | 43:59.22 | 2:36.18 | 197947 | 209664 21 | 46:35.40 | 2:04.20 | 209665 | 218984 22 | 48:39.60 | 1:58.40 | 218985 | 227874 23 | 50:38.25 | 3:22.65 | 227875 | 243089 24 | 54:01.15 | 2:00.47 | 243090 | 252136 25 | 56:01.62 | 2:04.20 | 252137 | 261456 26 | 58:06.07 | 3:29.38 | 261457 | 277169 27 | 61:35.45 | 2:12.27 | 277170 | 287096

Характеристики диапазона извлечения и сообщения об ошибках

Выбранный диапазон

Имя файла D:\Muzika\Jody Reynolds - Endless Sleep (1998)\Jody Reynolds - Endless Sleep.wav

Пиковый уровень 100.0 % Скорость извлечения 3.4 X Качество диапазона 99.9 % CRC теста A4F82834 CRC копии A4F82834 Копирование... OK

Ошибок не произошло

AccurateRip: сводка

Трек 1 : извлечено точно (доверие 1) [4F934A0E] (AR v1)Трек 2 : извлечено точно (доверие 1) [14E3918F] (AR v1)Трек 3 : извлечено точно (доверие 1) [F525DB83] (AR v1)Трек 4 : извлечено точно (доверие 1) [5E2EEDF9] (AR v1)Трек 5 : извлечено точно (доверие 1) [18A1184A] (AR v1)Трек 6 : извлечено точно (доверие 1) [BA3AB741] (AR v1)Трек 7 : извлечено точно (доверие 1) [268CE492] (AR v1)Трек 8 : извлечено точно (доверие 1) [B85693AA] (AR v1)Трек 9 : извлечено точно (доверие 1) [C10B8276] (AR v1)Трек 10 : извлечено точно (доверие 1) [5091A723] (AR v1)Трек 11 : извлечено точно (доверие 1) [98CFFAA5] (AR v1)Трек 12 : извлечено точно (доверие 1) [21EAA662] (AR v1)Трек 13 : извлечено точно (доверие 1) [1DD23FAD] (AR v1)Трек 14 : извлечено точно (доверие 1) [B4BF24D4] (AR v1)Трек 15 : извлечено точно (доверие 1) [3F276B98] (AR v1)Трек 16 : извлечено точно (доверие 1) [438228DB] (AR v1)Трек 17 : извлечено точно (доверие 1) [47D2F949] (AR v1)Трек 18 : извлечено точно (доверие 1) [C85AC67E] (AR v1)Трек 19 : извлечено точно (доверие 1) [8ECA2B5A] (AR v1)Трек 20 : извлечено точно (доверие 1) [C0E7C55D] (AR v1)Трек 21 : извлечено точно (доверие 1) [A85A74DD] (AR v1)Трек 22 : извлечено точно (доверие 1) [4C9A3C13] (AR v1)Трек 23 : извлечено точно (доверие 1) [A4689EFB] (AR v1)Трек 24 : извлечено точно (доверие 1) [9C7E5169] (AR v1)Трек 25 : извлечено точно (доверие 1) [0B34311E] (AR v1)Трек 26 : извлечено точно (доверие 1) [5A8E2387] (AR v1)Трек 27 : извлечено точно (доверие 1) [E223B6B8] (AR v1)

Все треки извлечены точно

Конец отчёта

==== Контрольная сумма отчёта B1495441CF26355736BEE8E02615D29128128DD8057A32E979359455B0F2269C ====


Трекер:  [ 09-Дек-2012 15:36 ]

  

Скачать .torrent

Размер .torrent файла 12 KB


Размер: 289 MB
Хэш (hash) релиза: 65513b2f49dc84ac3deff8c3e8409d5108414ebe

Еще никто не оставлял запись к записи скачать торрент Jody Reynolds - Endless Sleep . Будь первым!

!Обратная связь