Скачать через торрент музыку Frames - In Via бесплатно без регистрации torrent

Если у вас наблюдаются проблемы со скриншотами, переходом по ссылками, скачиванием торрентов - проблемы в блокировщике рекламы AdBlock. #хорошегоДня!


Статистика раздачи
Размер:  363 MB   |    Зарегистрирован:  4 года 8 месяцев   |    .torrent скачан:  14 раз   |   
Раздают:  1  
   
Загрузка...
 
Автор Сообщение

Galfimbul

avatar Galfimbul


Frames - In Via

Жанр: Neo Progressive
Год выпуска диска: 2012
Страна: Germany
Label: Steamhammer/SPV
Catalog Nr.: 260182CD
Аудио кодек: FLAC
Тип рипа: image+.cue (test&copy)
Битрейт аудио: lossless
Продолжительность: 57:53
Источник: свой рип

Трэклист:

1. Entrance
2. Departure
3. Encounter
4. Calm Wisdom
5. Stir
6. Reflections
7. Eris
8. Don't Stay Here
9. End Of A Decade
10. Coda

Total Time: 57:53

Музыканты:

- Jonas Meyer / guitar
- Manuel Schönfeld / keys
- Hajo Cirksena / bass
- Kiryll Kulakowski / drums

Об альбоме: Второй студийный альбом немецкого проекта, запомнившегося многим любителям нео и симфо своим дебютником двухлетней давности.
В музыкальном плане, этот релиз отличается от дебютника несильно. Разве что, он малость пожёстче и изобилует спецэффектами, которые поначалу можно принять за дефекты диска. Но, стОит прислушаться, и понимаешь, что это "изюминка" от создателей.
Наверное, многие уже ознакомились с этим альбомом в мп3, что давно есть на трекере. Тем не менее, рекомендую.
Exact Audio Copy V1.0 beta 3 from 29. August 2011

EAC extraction logfile from 20. November 2012, 21:59

Frames / In Via

Used drive : ASUS DRW-24B1LT Adapter: 4 ID: 0

Read mode : Secure
Utilize accurate stream : Yes
Defeat audio cache : Yes
Make use of C2 pointers : No

Read offset correction : 6
Overread into Lead-In and Lead-Out : No
Fill up missing offset samples with silence : Yes
Delete leading and trailing silent blocks : No
Null samples used in CRC calculations : Yes
Used interface : Native Win32 interface for Win NT & 2000

Used output format : User Defined Encoder
Selected bitrate : 1024 kBit/s
Quality : High
Add ID3 tag : Yes
Command line compressor : C:\Program Files (x86)\FLAC\flac.exe
Additional command line options : -6 -V -T "ARTIST=%artist%" -T "TITLE=%title%" -T "ALBUM=%albumtitle%" -T "DATE=%year%" -T "TRACKNUMBER=%tracknr%" -T "GENRE=%genre%" -T "COMMENT=%comment%" %source% -o %dest%

TOC of the extracted CD

Track | Start | Length | Start sector | End sector
---------------------------------------------------------
1 | 0:00.00 | 1:00.65 | 0 | 4564
2 | 1:00.65 | 7:04.59 | 4565 | 36423
3 | 8:05.49 | 5:57.61 | 36424 | 63259
4 | 14:03.35 | 2:07.05 | 63260 | 72789
5 | 16:10.40 | 5:32.53 | 72790 | 97742
6 | 21:43.18 | 6:46.23 | 97743 | 128215
7 | 28:29.41 | 8:14.04 | 128216 | 165269
8 | 36:43.45 | 8:34.21 | 165270 | 203840
9 | 45:17.66 | 5:50.36 | 203841 | 230126
10 | 51:08.27 | 6:44.48 | 230127 | 260474

Range status and errors

Selected range

Filename Y:\EAC\wurensh\Frames\Frames - In Via.wav

Peak level 99.8 %
Extraction speed 3.4 X
Range quality 100.0 %
Test CRC 0C8CE870
Copy CRC 0C8CE870
Copy OK

No errors occurred

AccurateRip summary

Track 1 not present in database
Track 2 not present in database
Track 3 not present in database
Track 4 not present in database
Track 5 not present in database
Track 6 not present in database
Track 7 not present in database
Track 8 not present in database
Track 9 not present in database
Track 10 not present in database

None of the tracks are present in the AccurateRip database

End of status report
Коврики 300dpi в комплекте.
Progarchives info

Трекер:  [ 09-Дек-2012 15:36 ]

  

Скачать .torrent

Размер .torrent файла 15 KB


Размер: 363 MB
Хэш (hash) релиза: b336cb704fa09744958cb4feff4501f9f303e11b

Еще никто не оставлял запись к записи скачать торрент Frames - In Via . Будь первым!

!Обратная связь