Скачать через торрент музыку Highest Dream - Far Away From Here - 2009, FLAC бесплатно без регистрации torrent

Если у вас наблюдаются проблемы со скриншотами, переходом по ссылками, скачиванием торрентов - проблемы в блокировщике рекламы AdBlock. #хорошегоДня!


Статистика раздачи
Размер:  322 MB   |    Зарегистрирован:  4 года 8 месяцев   |    .torrent скачан:  20 раз   |   
Раздают:  1  
   
Загрузка...
 
Автор Сообщение

Galfimbul

avatar Galfimbul


Highest Dream - Far Away From Here

Жанр: Melodic Rock\AOR
Страна-производитель диска: EU
Год издания: 2009
Издатель (лейбл): Escape Music LTD
Номер по каталогу: ESM 186
Страна: Brazil
Аудиокодек: FLAC (*.flac)
Тип рипа: image+.cue
Битрейт аудио: lossless
Продолжительность: 00:44:31
Источник (релизер): My CD
Наличие сканов в содержимом раздачи: через неделю
Треклист:
01.Intro [00:00:51]
02.Restless Dreamer [00:04:04]
03.Can't Fight Hearts [00:04:09]
04.Helpin' Hand [00:04:12]
05.Far Away from Here [00:04:23]
06.All I Want [00:04:13]
07.Reach Higher [00:05:05]
08.Love Makes You Cry [00:04:38]
09.I Will Find You [00:04:57]
10.Not an Angel [00:04:04]
11.Never be Apart [00:03:49]

Exact Audio Copy V1.0 beta 3 from 29. August 2011

EAC extraction logfile from 1. December 2012, 10:26

Highest Dream / Far Away From Here

Used drive : MATSHITADVD-RAM UJ-850S Adapter: 1 ID: 0

Read mode : SecureUtilize accurate stream : YesDefeat audio cache : YesMake use of C2 pointers : No

Read offset correction : 102Overread into Lead-In and Lead-Out : NoFill up missing offset samples with silence : YesDelete leading and trailing silent blocks : NoNull samples used in CRC calculations : YesUsed interface : Native Win32 interface for Win NT & 2000

Used output format : User Defined EncoderSelected bitrate : 640 kBit/sQuality : HighAdd ID3 tag : NoCommand line compressor : C:\Program Files\Exact Audio Copy\Flac\flac.exeAdditional command line options : -V -8 -T "Date=%year%" -T "Genre=%genre%" %source%

TOC of the extracted CD

Track | Start | Length | Start sector | End sector --------------------------------------------------------- 1 | 0:00.00 | 0:53.49 | 0 | 4023 2 | 0:53.49 | 4:06.16 | 4024 | 22489 3 | 4:59.65 | 4:11.54 | 22490 | 41368 4 | 9:11.44 | 4:14.08 | 41369 | 60426 5 | 13:25.52 | 4:25.28 | 60427 | 80329 6 | 17:51.05 | 4:15.47 | 80330 | 99501 7 | 22:06.52 | 5:07.43 | 99502 | 122569 8 | 27:14.20 | 4:40.53 | 122570 | 143622 9 | 31:54.73 | 4:59.29 | 143623 | 166076 10 | 36:54.27 | 4:06.44 | 166077 | 184570 11 | 41:00.71 | 3:49.17 | 184571 | 201762

Range status and errors

Selected range

Filename C:\Users\815815\Desktop\Новая папка\Highest Dream - Far Away From Here.wav

Peak level 96.6 % Extraction speed 2.3 X Range quality 99.9 % Test CRC 139D3888 Copy CRC 139D3888 Copy OK

No errors occurred

AccurateRip summary

Track 1 accurately ripped (confidence 2) [88396359] (AR v1)Track 2 accurately ripped (confidence 2) [2528C01A] (AR v1)Track 3 accurately ripped (confidence 2) [234FFBC8] (AR v1)Track 4 accurately ripped (confidence 2) [1B063BFE] (AR v1)Track 5 accurately ripped (confidence 2) [FB8D82C8] (AR v1)Track 6 accurately ripped (confidence 2) [6CE8C231] (AR v1)Track 7 accurately ripped (confidence 2) [3F058C9C] (AR v1)Track 8 accurately ripped (confidence 2) [5F637CE2] (AR v1)Track 9 accurately ripped (confidence 2) [832526CE] (AR v1)Track 10 accurately ripped (confidence 2) [DDA2DBCA] (AR v1)Track 11 accurately ripped (confidence 2) [AF0B9B93] (AR v1)

All tracks accurately ripped

End of status report

==== Log checksum 9E9B657BEBA51FA5A8255992870DC3C7FC0B02C385D2209DCD7F4CEA1E1C0E4C ====
Highest Dream are from Brazil and the band centres around Riq Ferris and Leo Mendes, two very talented people who have created a sound that has great influences of renowned bands such as Toto, Journey, Kansas, Asia, Survivor, Van Halen, Queen, Europe, Whitesnake, Pride of Lions, Def Leppard, among many others of the genre. If you want to hear pure melodic rock that borders on pomp then look no further!

Keyboardist Leo Mendes made his first musical contact with the vocalist Riq Ferris in a work named "Hardhits", a cover band playing hard rock and AOR songs. They recorded a demo CD, but the work didn’t continue and the band broke up in mid 2006. Before “Highest Dream”, Leo Mendes and Riq Ferris were part of many projects. Leo worked as keyboardist, producer, musical director, arranger and made several works with many artists. Also, he acted intensely in the musical theatre scene of Rio de Janeiro.

Riq sang in several rock bands and recorded several works, such as Sigma 5, Thotten, Snow, and as backing vocal of some artists such as Ted Poley, Joe Lynn Turner and Tony Martin.

In May 2008, Leo contacted Riq again and discussed their dreams. Both had several songs and ideas in their personal collections, and that was enough to start recording “Highest Dream”. All compositions and arrangements were made in a very spontaneous and genuine way, without the intention to create something biased. It was exactly the realization of all the musical influences that was within each of them.

The music on this debut CD is Melodic Rock and has all the hallmarks of the eighties style sound with great guitar playing (using three great guitarists of Rio de Janeiro: Marcelo Nami, John Cassio and Marcio Loureiro) and some fantastic parping keyboards, courtesy of Leo himself. The result is an astounding array of compositions that range from Asia-like keyboards to Journeyesque melodies with some Kansas overtones.
Riq Ferris - vocal
Leo Mendes - keyboards, guitar,drums & basses programing ,vocal & backing vocals

:

</span>
[b]Marcelo Nami
- guitar
John Cassio - guitar
Marcio Loureiro - guitar


Трекер:  [ 09-Дек-2012 15:36 ]

  

Скачать .torrent

Размер .torrent файла 13 KB


Размер: 322 MB
Хэш (hash) релиза: 71523a80821a8bce24a08cc85e9997c7338cbb45

Еще никто не оставлял запись к записи скачать торрент Highest Dream - Far Away From Here - 2009, FLAC . Будь первым!

!Обратная связь