Скачать через торрент музыку Pride Of Lions - Дискография 2003-2012 бесплатно без регистрации torrent

Если у вас наблюдаются проблемы со скриншотами, переходом по ссылками, скачиванием торрентов - проблемы в блокировщике рекламы AdBlock. #хорошегоДня!


Статистика раздачи
Размер:  3.19 GB   |    Зарегистрирован:  4 года 11 месяцев   |    .torrent скачан:  20 раз   |   
Раздают:  1  
   
Загрузка...
 
Автор Сообщение

Galfimbul

avatar Galfimbul


Pride Of Lions
Дискография 2003-2012

Жанр: Melodic Rock/AOR
Страна-производитель дисков: Japan
Издатель (лейбл): King Records
Страна: U.S.A
Аудиокодек: FLAC (*.flac)
Тип рипа: image+.cue
Битрейт аудио: lossless
Продолжительность: 5 часов 10 минут
Источник (релизер): собственные рипы
Наличие сканов в содержимом раздачи: да
Продолжительность: 74:58

Треклист:
1. It's Criminal - 4:55
2. Gone - 4:36
3. Interrupted Melody - 4:09
4. Sound Of Home - 4:31
5. Prideland - 6:16
6. Unbreakable - 5:04
7. First Time Around The Sun - 5:10
8. Turn To Me - 4:49
9. Madness Of Love - 6:19
10. Love Is On The Rocks - 4:27
11. Last Safe Place - 4:39
12. Music And Me - 5:22
13. Surrender To The Night (bonus track for Japan) - 4:06
14. Stand By You (bonus track for Japan) - 6:08
15. So Deadly (bonus track for Japan) - 4:20

Состав группы:
Jim Peterik - lead vocals, guitars, bass, piano and keyboards
Toby Hitchcock - lead and background vocals

Mike Aquino - guitars
Klem Hayes - bass
Christian Cullen - keyboards and orchestration
Ed Breckenfeld, Hilary Jones - drums
Chuck Soumar - percussion
John Melnick - background vocals
Exact Audio Copy V1.0 beta 3 from 29. August 2011

EAC extraction logfile from 24. October 2012, 18:49

Pride Of Lions / Pride Of Lions

Used drive : SlimtypeDVD A DS8A5SH Adapter: 0 ID: 1

Read mode : SecureUtilize accurate stream : YesDefeat audio cache : YesMake use of C2 pointers : No

Read offset correction : 6Overread into Lead-In and Lead-Out : NoFill up missing offset samples with silence : YesDelete leading and trailing silent blocks : NoNull samples used in CRC calculations : YesUsed interface : Native Win32 interface for Win NT & 2000

Used output format : User Defined EncoderSelected bitrate : 320 kBit/sQuality : HighAdd ID3 tag : NoCommand line compressor : C:\Program Files (x86)\Exact Audio Copy\Flac\flac.exeAdditional command line options : -V -8 -T "Date=%year%" -T "Genre=%genre%" %source%

TOC of the extracted CD

Track | Start | Length | Start sector | End sector --------------------------------------------------------- 1 | 0:00.00 | 4:55.42 | 0 | 22166 2 | 4:55.42 | 4:36.35 | 22167 | 42901 3 | 9:32.02 | 4:09.30 | 42902 | 61606 4 | 13:41.32 | 4:31.00 | 61607 | 81931 5 | 18:12.32 | 6:16.48 | 81932 | 110179 6 | 24:29.05 | 5:04.27 | 110180 | 133006 7 | 29:33.32 | 5:10.18 | 133007 | 156274 8 | 34:43.50 | 4:49.00 | 156275 | 177949 9 | 39:32.50 | 6:19.37 | 177950 | 206411 10 | 45:52.12 | 4:27.55 | 206412 | 226491 11 | 50:19.67 | 4:39.65 | 226492 | 247481 12 | 54:59.57 | 5:22.25 | 247482 | 271656 13 | 60:22.07 | 4:06.73 | 271657 | 290179 14 | 64:29.05 | 6:08.15 | 290180 | 317794 15 | 70:37.20 | 4:20.47 | 317795 | 337341

Range status and errors

Selected range

Filename D:\My Music\Pride Of Lions - 2003 Pride Of Lions\Pride Of Lions - Pride Of Lions.wav

Peak level 98.7 % Extraction speed 5.2 X Range quality 100.0 % Test CRC AD381888 Copy CRC AD381888 Copy OK

No errors occurred

AccurateRip summary

Track 1 accurately ripped (confidence 1) [4956C96E] (AR v1)Track 2 accurately ripped (confidence 1) [D1C64E53] (AR v1)Track 3 accurately ripped (confidence 1) [D88670A3] (AR v1)Track 4 accurately ripped (confidence 1) [6C7A8827] (AR v1)Track 5 accurately ripped (confidence 1) [2E1F1219] (AR v1)Track 6 accurately ripped (confidence 1) [C49934F6] (AR v1)Track 7 accurately ripped (confidence 1) [1D6297F7] (AR v1)Track 8 accurately ripped (confidence 1) [058C7997] (AR v1)Track 9 accurately ripped (confidence 1) [AC568BF4] (AR v1)Track 10 accurately ripped (confidence 1) [C60B68E8] (AR v1)Track 11 accurately ripped (confidence 1) [B4F3F701] (AR v1)Track 12 accurately ripped (confidence 1) [BE3272CE] (AR v1)Track 13 accurately ripped (confidence 1) [32AC5CE8] (AR v1)Track 14 accurately ripped (confidence 1) [4C0BD1DA] (AR v1)Track 15 accurately ripped (confidence 1) [5F1B38C7] (AR v1)

All tracks accurately ripped

End of status report

==== Log checksum 2E612D2FC32A61391AFE7D1A757D80584067B07E1F96B376EDDFA5FC898AFFF6 ====
Продолжительность: 70:15

Треклист:
1. The Courage To Love Somebody - 4:23
2. Parallel Lines - 4:37
3. Back To Camelot - 6:07
4. Born To Believe In You - 4:36
5. What Kind Of Fool - 5:46
6. Man Behind The Mask - 5:08
7. Light From A Distant Shore - 5:48
8. Letter To The Future - 4:36
9. The Destiny Stone - 6:09
10. Second Hand Life - 4:29
11. Falling Back Then - 6:19
12. The Gift Of Song - 6:15
13. Reckless Love (bonus track for Japan) - 5:56

Состав группы:
Jim Peterik - lead and background vocals, guitars, percussion, piano & keyboards
Toby Hitchcock - lead and background vocals

Mike Aquino - guitars
Klem Hayes - bass
Christian Cullen - keyboards and strings arrangements
Ed Breckenfeld, Hilary Jones - drums
Tom Griffin - background vocals
Scott May - Hammond organ solo on "The Gift Of Song"
Exact Audio Copy V1.0 beta 3 from 29. August 2011

EAC extraction logfile from 23. October 2012, 23:53

Pride Of Lions / The Destiny Stone

Used drive : SlimtypeDVD A DS8A5SH Adapter: 0 ID: 1

Read mode : SecureUtilize accurate stream : YesDefeat audio cache : YesMake use of C2 pointers : No

Read offset correction : 6Overread into Lead-In and Lead-Out : NoFill up missing offset samples with silence : YesDelete leading and trailing silent blocks : NoNull samples used in CRC calculations : YesUsed interface : Native Win32 interface for Win NT & 2000

Used output format : User Defined EncoderSelected bitrate : 320 kBit/sQuality : HighAdd ID3 tag : NoCommand line compressor : C:\Program Files (x86)\Exact Audio Copy\Flac\flac.exeAdditional command line options : -V -8 -T "Date=%year%" -T "Genre=%genre%" %source%

TOC of the extracted CD

Track | Start | Length | Start sector | End sector --------------------------------------------------------- 1 | 0:00.00 | 4:23.35 | 0 | 19759 2 | 4:23.35 | 4:37.02 | 19760 | 40536 3 | 9:00.37 | 6:07.48 | 40537 | 68109 4 | 15:08.10 | 4:36.05 | 68110 | 88814 5 | 19:44.15 | 5:46.15 | 88815 | 114779 6 | 25:30.30 | 5:08.07 | 114780 | 137886 7 | 30:38.37 | 5:48.58 | 137887 | 164044 8 | 36:27.20 | 4:36.17 | 164045 | 184761 9 | 41:03.37 | 6:09.55 | 184762 | 212491 10 | 47:13.17 | 4:29.73 | 212492 | 232739 11 | 51:43.15 | 6:19.22 | 232740 | 261186 12 | 58:02.37 | 6:15.55 | 261187 | 289366 13 | 64:18.17 | 5:56.53 | 289367 | 316119

Range status and errors

Selected range

Filename D:\My Music\Pride Of Lions - 2004 The Destiny Stone\Pride Of Lions - The Destiny Stone.wav

Peak level 97.9 % Extraction speed 2.1 X Range quality 100.0 % Test CRC 1A3863C5 Copy CRC 1A3863C5 Copy OK

No errors occurred

AccurateRip summary

Track 1 accurately ripped (confidence 1) [0B635363] (AR v1)Track 2 accurately ripped (confidence 1) [B27FE9EF] (AR v1)Track 3 accurately ripped (confidence 1) [6C94872C] (AR v1)Track 4 accurately ripped (confidence 1) [6821E255] (AR v1)Track 5 accurately ripped (confidence 1) [7504E89E] (AR v1)Track 6 accurately ripped (confidence 1) [4540CB05] (AR v1)Track 7 accurately ripped (confidence 1) [64B9EAB1] (AR v1)Track 8 accurately ripped (confidence 1) [37AF6CEE] (AR v1)Track 9 accurately ripped (confidence 1) [DB93140D] (AR v1)Track 10 accurately ripped (confidence 1) [356747A4] (AR v1)Track 11 accurately ripped (confidence 1) [D21A5ACA] (AR v1)Track 12 accurately ripped (confidence 1) [657206C1] (AR v1)Track 13 accurately ripped (confidence 1) [C4339FAE] (AR v1)

All tracks accurately ripped

End of status report

==== Log checksum 3836A85361322504FE2CA455FCF9B5552FD1E4A79B35996044EEC55720DB0904 ====
Продолжительность: 79:37 / 23:51

Треклист:
CD1 - Live In Belgium
1. It's Criminal - 6:24
2. Gone - 4:49
3. Sound Of Home - 4:55
4. Man Behind The Mask - 5:10
5. The Search Is Over - 4:59
6. Music And Me - 5:51
7. Vehicle - 6:57
8. The Courage To Love Somebody - 4:35
9. Black Ribbons (Voices Of The World) - 4:42
10. Unbreakable - 5:41
11. What Kind Of Fool -5:51
12. I Can't Hold Back - 4:47
13. The Gift Of Song -6:40
14. Eye Of The Tiger - 8:10

CD2 - Studio And Live Bonus Tracks
1. Dark Angel - 5:25
2. Black Ribbons (Voices Of The World) - 4:36
3. Feels Like Another Planet - 4:21
4. Gone (live, bonus track for Japan) - 4:46
5. I Can't Hold Back (live, bonus track for Japan) - 4:43

Состав группы:
Jim Peterik - vocals, guitars & keyboards
Toby Hitchcock - lead vocals

Mike Aquino - guitars & background vocals
Klem Hayes - bass
Christian Cullen - keyboards & background vocals
Ed Breckenfeld - drums
Exact Audio Copy V1.0 beta 3 from 29. August 2011

EAC extraction logfile from 13. November 2012, 20:47

Pride Of Lions / Live In Belgium CD1

Used drive : SlimtypeDVD A DS8A5SH Adapter: 0 ID: 1

Read mode : SecureUtilize accurate stream : YesDefeat audio cache : YesMake use of C2 pointers : No

Read offset correction : 6Overread into Lead-In and Lead-Out : NoFill up missing offset samples with silence : YesDelete leading and trailing silent blocks : NoNull samples used in CRC calculations : YesUsed interface : Native Win32 interface for Win NT & 2000

Used output format : User Defined EncoderSelected bitrate : 320 kBit/sQuality : HighAdd ID3 tag : NoCommand line compressor : C:\Program Files (x86)\Exact Audio Copy\Flac\flac.exeAdditional command line options : -V -8 -T "Date=%year%" -T "Genre=%genre%" %source%

TOC of the extracted CD

Track | Start | Length | Start sector | End sector --------------------------------------------------------- 1 | 0:00.00 | 6:24.67 | 0 | 28866 2 | 6:24.67 | 4:49.48 | 28867 | 50589 3 | 11:14.40 | 4:55.40 | 50590 | 72754 4 | 16:10.05 | 5:10.10 | 72755 | 96014 5 | 21:20.15 | 4:59.70 | 96015 | 118509 6 | 26:20.10 | 5:51.27 | 118510 | 144861 7 | 32:11.37 | 6:57.15 | 144862 | 176151 8 | 39:08.52 | 4:35.50 | 176152 | 196826 9 | 43:44.27 | 4:42.18 | 196827 | 217994 10 | 48:26.45 | 5:41.30 | 217995 | 243599 11 | 54:08.00 | 5:51.10 | 243600 | 269934 12 | 59:59.10 | 4:47.52 | 269935 | 291511 13 | 64:46.62 | 6:41.05 | 291512 | 321591 14 | 71:27.67 | 8:08.70 | 321592 | 358261

Range status and errors

Selected range

Filename D:\My Music\Pride Of Lions - 2006 Live In Belgium\CD1\Pride Of Lions - Live In Belgium CD1.wav

Peak level 97.9 % Extraction speed 2.2 X Range quality 99.9 % Test CRC E4912F9F Copy CRC E4912F9F Copy OK

No errors occurred

AccurateRip summary

Track 1 not present in databaseTrack 2 not present in databaseTrack 3 not present in databaseTrack 4 not present in databaseTrack 5 not present in databaseTrack 6 not present in databaseTrack 7 not present in databaseTrack 8 not present in databaseTrack 9 not present in databaseTrack 10 not present in databaseTrack 11 not present in databaseTrack 12 not present in databaseTrack 13 not present in databaseTrack 14 not present in database

None of the tracks are present in the AccurateRip database

End of status report

==== Log checksum CC846A2E71504BCCDD10E48F0193BAC45A0FFB4335A17A909E727BF7EB981E05 ====
Exact Audio Copy V1.0 beta 3 from 29. August 2011

EAC extraction logfile from 13. November 2012, 18:37

Pride Of Lions / Live In Belgium CD2

Used drive : SlimtypeDVD A DS8A5SH Adapter: 0 ID: 1

Read mode : SecureUtilize accurate stream : YesDefeat audio cache : YesMake use of C2 pointers : No

Read offset correction : 6Overread into Lead-In and Lead-Out : NoFill up missing offset samples with silence : YesDelete leading and trailing silent blocks : NoNull samples used in CRC calculations : YesUsed interface : Native Win32 interface for Win NT & 2000

Used output format : User Defined EncoderSelected bitrate : 320 kBit/sQuality : HighAdd ID3 tag : NoCommand line compressor : C:\Program Files (x86)\Exact Audio Copy\Flac\flac.exeAdditional command line options : -V -8 -T "Date=%year%" -T "Genre=%genre%" %source%

TOC of the extracted CD

Track | Start | Length | Start sector | End sector --------------------------------------------------------- 1 | 0:00.00 | 5:25.25 | 0 | 24399 2 | 5:25.25 | 4:35.70 | 24400 | 45094 3 | 10:01.20 | 4:21.05 | 45095 | 64674 4 | 14:22.25 | 4:46.12 | 64675 | 86136 5 | 19:08.37 | 4:42.63 | 86137 | 107349

Range status and errors

Selected range

Filename D:\My Music\Pride Of Lions - 2006 Live In Belgium\CD2\Pride Of Lions - Live In Belgium CD2.wav

Peak level 98.7 % Extraction speed 3.6 X Range quality 100.0 % Test CRC 4CC23D6C Copy CRC 4CC23D6C Copy OK

No errors occurred

AccurateRip summary

Track 1 not present in databaseTrack 2 not present in databaseTrack 3 not present in databaseTrack 4 not present in databaseTrack 5 not present in database

None of the tracks are present in the AccurateRip database

End of status report

==== Log checksum FD6FD5B66DAE181A88B693563E5942B99770BB7D08FB49100049B7F144068237 ====
DVD можно скачать здесь
Продолжительность: 64:36

Треклист:
1. Heaven Of Earth - 5:34
2. Book Of Life - 4:47
3. Love's Eternal Flame - 4:30
4. Language Of The Heart - 4:25
5. Let Me You Go - 4:13
6. Faithful Heart - 4:33
7. Defying Gravity - 4:03
8. Roaring Of Dreams - 4:38
9. Secret Of The Way - 5:03
10. Astonish You - 5:25
11. Tall Ships - 5:33
12. Turnaround - 7:08
13. I Am My Father (bonus track for Japan) - 4:38

Состав группы:
Jim Peterik - lead vocals, guitars & keyboards
Toby Hitchcock - lead and background vocals
Mike Aquino - guitars
Klem Hayes - bass
Christian Cullen - keyboards
Ed Breckenfeld - drums

Thom Griffin - background vocals
Greg Fint - french horn on "Tall Ships"
Tori Hitchcock - female vocal on "Turnaround"
Hames Hudson, Kimberly Cothram, Dan Porter, Theresa Davis, May Coen, Byron Woods - Heaven On Earth choir
Exact Audio Copy V1.0 beta 3 from 29. August 2011

EAC extraction logfile from 23. October 2012, 22:55

Pride Of Lions / The Roaring Of Dreams

Used drive : SlimtypeDVD A DS8A5SH Adapter: 0 ID: 1

Read mode : SecureUtilize accurate stream : YesDefeat audio cache : YesMake use of C2 pointers : No

Read offset correction : 6Overread into Lead-In and Lead-Out : NoFill up missing offset samples with silence : YesDelete leading and trailing silent blocks : NoNull samples used in CRC calculations : YesUsed interface : Native Win32 interface for Win NT & 2000

Used output format : User Defined EncoderSelected bitrate : 320 kBit/sQuality : HighAdd ID3 tag : NoCommand line compressor : C:\Program Files (x86)\Exact Audio Copy\Flac\flac.exeAdditional command line options : -V -8 -T "Date=%year%" -T "Genre=%genre%" %source%

TOC of the extracted CD

Track | Start | Length | Start sector | End sector --------------------------------------------------------- 1 | 0:00.00 | 5:34.35 | 0 | 25084 2 | 5:34.35 | 4:47.65 | 25085 | 46674 3 | 10:22.25 | 4:30.25 | 46675 | 66949 4 | 14:52.50 | 4:25.35 | 66950 | 86859 5 | 19:18.10 | 4:13.07 | 86860 | 105841 6 | 23:31.17 | 4:33.49 | 105842 | 126365 7 | 28:04.66 | 4:03.01 | 126366 | 144591 8 | 32:07.67 | 4:38.68 | 144592 | 165509 9 | 36:46.60 | 5:03.40 | 165510 | 188274 10 | 41:50.25 | 5:25.45 | 188275 | 212694 11 | 47:15.70 | 5:33.40 | 212695 | 237709 12 | 52:49.35 | 7:08.55 | 237710 | 269864 13 | 59:58.15 | 4:37.66 | 269865 | 290705

Range status and errors

Selected range

Filename D:\My Music\Pride Of Lions - 2007 The Roaring Of Dreams\Pride Of Lions - The Roaring Of Dreams.wav

Peak level 100.0 % Extraction speed 4.5 X Range quality 99.9 % Test CRC 7CF30505 Copy CRC 7CF30505 Copy OK

No errors occurred

AccurateRip summary

Track 1 not present in databaseTrack 2 not present in databaseTrack 3 not present in databaseTrack 4 not present in databaseTrack 5 not present in databaseTrack 6 not present in databaseTrack 7 not present in databaseTrack 8 not present in databaseTrack 9 not present in databaseTrack 10 not present in databaseTrack 11 not present in databaseTrack 12 not present in databaseTrack 13 not present in database

None of the tracks are present in the AccurateRip database

End of status report

==== Log checksum C35254054EF0D2B89E104A1935115F547A6B0F63D3236CD5407DFD80A30B2FD5 ====
Продолжительность: 56:33

Треклист:
1. Immortal - 5:01
2. Delusional - 4:37
3. Tie Down The Wind - 5:15
4. Shine On - 4:39
5. Everything That Money Can't Buy - 4:33
6. Coin On The Realm - 4:31
7. Sending My Love - 4:57
8. Vital Signs - 4:08
9. If It Doesn't Kill Me - 4:44
10. Are You The Same Girl - 5:21
11. Ask Me Yesterday - 4:13
12. Everything That Money Can't Buy (acoustic version) (bonus track for Japan) - 4:35

Состав группы:
Jim Peterik - lead & harmony vocals, guitars, bass, percussion & all keyboards
Toby Hitchcock - lead vocals
Mike Aquino - guitars
Klem Hayes, Bobby Lizik - bass
Ed Breckenfeld, Kelly Keagy - drums
Thom Griffin - background vocals
Jeff Lintz - orchestral arrangements
Exact Audio Copy V1.0 beta 3 from 29. August 2011

EAC extraction logfile from 18. November 2012, 22:10

Pride Of Lions / Immortal

Used drive : SlimtypeDVD A DS8A5SH Adapter: 0 ID: 1

Read mode : SecureUtilize accurate stream : YesDefeat audio cache : YesMake use of C2 pointers : No

Read offset correction : 6Overread into Lead-In and Lead-Out : NoFill up missing offset samples with silence : YesDelete leading and trailing silent blocks : NoNull samples used in CRC calculations : YesUsed interface : Native Win32 interface for Win NT & 2000

Used output format : User Defined EncoderSelected bitrate : 320 kBit/sQuality : HighAdd ID3 tag : NoCommand line compressor : C:\Program Files (x86)\Exact Audio Copy\Flac\flac.exeAdditional command line options : -V -8 -T "Date=%year%" -T "Genre=%genre%" %source%

TOC of the extracted CD

Track | Start | Length | Start sector | End sector --------------------------------------------------------- 1 | 0:00.00 | 5:01.24 | 0 | 22598 2 | 5:01.24 | 4:36.56 | 22599 | 43354 3 | 9:38.05 | 5:15.03 | 43355 | 66982 4 | 14:53.08 | 4:39.12 | 66983 | 87919 5 | 19:32.20 | 4:32.68 | 87920 | 108387 6 | 24:05.13 | 4:30.53 | 108388 | 128690 7 | 28:35.66 | 4:56.62 | 128691 | 150952 8 | 33:32.53 | 4:07.43 | 150953 | 169520 9 | 37:40.21 | 4:43.47 | 169521 | 190792 10 | 42:23.68 | 5:20.69 | 190793 | 214861 11 | 47:44.62 | 4:13.10 | 214862 | 233846 12 | 51:57.72 | 4:34.68 | 233847 | 254464

Range status and errors

Selected range

Filename D:\My Music\Pride Of Lions - 2012 Immortal\Pride Of Lions - Immortal.wav

Peak level 99.9 % Extraction speed 4.4 X Range quality 100.0 % Test CRC 2D8C0294 Copy CRC 2D8C0294 Copy OK

No errors occurred

AccurateRip summary

Track 1 not present in databaseTrack 2 not present in databaseTrack 3 not present in databaseTrack 4 not present in databaseTrack 5 not present in databaseTrack 6 not present in databaseTrack 7 not present in databaseTrack 8 not present in databaseTrack 9 not present in databaseTrack 10 not present in databaseTrack 11 not present in databaseTrack 12 not present in database

None of the tracks are present in the AccurateRip database

End of status report

==== Log checksum DA41589D6EAE3DC730E60211110FC3F239E1E358250D060BF7108D27EB785DB4 ====
Некоторые рок-журналисты упрекают итальянский лейбл Frontiers Records в штамповке искусственно создаваемых проектов. Мол, звонит шеф лейбла Серафино Перуджино клавишнику ROYAL HUNT Андрею Андерсену и говорит: "А запиши-ка ты, Андрей, альбом с Полом Лэйном из DANGER DANGER и Дэвидом Ридманом из PINK CREAM 69". И появляется после этого на прилавках альбом проекта ANDERSEN/LAINE/READMAN. Или звонит Серафино шведскому многостаночнику Магнусу Карлссону и говорит: "Слышь, мужик, тут Марк Боулс, ну, тот самый, который на "Трилогии" Мальмстина пел и в RING OF FIRE, без дела болтается, прикинь? Намек понял?". И появляется после этого на прилавках альбом проекта THE CODEX. Или, например, связывается Перуджино с еще одним шведским трудоголиком, Томми Денандером и сообщает ему: "Томми, спевшему на одном альбоме группы TOTO Ферги Фредериксену сольный альбом пора записывать. Помоги, ты же с ним еще в RADIOACTIVE работал". После этого на прилавках появляется альбом проекта FREDERIKSEN/DENANDER. Продолжать можно долго, но общий принцип, я думаю, всем понятен.
Так вот, зря некоторые обижаются на этот замечательный лейбл. Ведь благодаря ему на рубеже веков мелодик-рок занял скромную, но прочную нишу на европейском музыкальном рынке, а мог бы вообще остаться жанром, по-настоящему востребованным, по большому счету, только в Японии. Да и перечисленные выше проекты совсем не безнадежны в музыкальном отношении.
Но не о них речь, а о чудесной группе PRIDE OF LIONS. Началась ее история вполне "конвейерным" образом. Как-то был у Серафино Перуджино разговор с Джимом Петериком, талантливейшим рок-композитором, известным в первую очередь как автор хита на все времена "Eye Of The Tiger", исполнявшегося его старой группой SURVIVOR и знакомого всем и каждому по фильму "Рокки 3" и не только. Серафино сказал Петерику, что было бы просто отлично, если бы тот не только для разных проектов музыку писал, а нашел бы хорошего вокалиста и организовал полноценную группу - талантище, все-таки. Джим подумал и согласился, а вскоре его познакомили с молодым человеком по имени Тоби Хичкок, в свои 26 лет не успевшем засветиться ни в одной группе. Когда Петерик услышал, как Тоби поет, то понял, что хочет видеть его вокалистом своей новой группы. Парень обладал красивейшим голосом с широким диапазоном, к тому же превосходно его использовал.
Группа получила название PRIDE OF LIONS. Помимо Петерика и Хичкока в ней задействованы профессиональные музыканты из WORLD STAGE BAND, аккомпанирующей Джиму в его различных проектах.
Первый же альбом, одноименный группе, просто взорвал рок-прессу. К примеру, авторитетный онлайн-журнал melodicrock.com назвал его альбомом года. Мне остается подписаться под всеми комплиментами в адрес диска - он идеален. Особенно стоит отметить то, насколько непохожими получились песни. Пластинка наглядно демонстрирует, что AOR - очень разнообразный стиль, могущий оперировать разными настроениями и чувствами. "Unbreakable" - мужественный волевой хард-рок, заставляющий вспомнить нетленку "Eye Of The Tiger". "First Time Around The Sun" - красивый, умиротворенный номер, явно вдохновленный наследием TOTO. "Interrupted Melody" - нежная, проникновенная баллада. Замыкающая диск "Music And Me" - торжественная эпическая композиция, представляющее собой признание в любви к музыке и как к искусству, и как верному жизненному спутнику. Вообще, отдельно можно было бы сказать что-то о каждой песне "Pride Of Lions". Но лучше послушать - это лучший AOR/melodic rock в новом тысячелетии.
Выдающийся композитор мелодического рока Джим Петерик был явно окрылен успехом дебюта PRIDE OF LIONS. Поэтому второй диск группы появился сразу на следующий год после выхода первого. Это можно считать завидной оперативностью или плодовитостью, но главное, в данном случае, совсем другое: по-прежнему высоким осталось качество музыки - в первую очередь, красота и искренность мелодий, вдохновенность вокальных партий, исполняемых Петериком напару с молодым дарованием Тоби Хичкоком. Голос последнего выполняет здесь ведущую роль, Петерик скорее подпевает, что неудивительно - группа создавалась именно под вокал Тоби. Сам Джим неоднократно заявлял, что все песни, которые он пишет, он всегда создает под какой-то конкретный голос. Поэтому, то, что он пишет для, скажем, Джо Линна Тернера, резко отличается от того, что предназначено для сольников барабанщика NIGHT RANGER Келли Киги. Поэтому и PRIDE OF LIONS не похожи ни на что - музыка группы драматична и театральна, как и вокал Тоби Хичкока, но при этом в прогрессив не превращается, хотя Петерик и говорил, что во время создания альбома в немалой степени был вдохновлен классикой американского прог-рока типа KANSAS.
Альбом звучит несколько мягче своего предшественника, но сам дух POL - светлый и жизнеутверждающий - узнается сразу. Никаких стилистических инноваций на диске нет и быть не может в принципе - группа изначально задумывалась как дань AORу восьмидесятых. Разве что приятно удивили сдвоенные бас-бочки в "Born To Believe In You", одном из сильнейших номеров диска, наряду с поэтичной, ориентированной на акустику "The Destiny Stone" и гротескной, маршеподобной "Man Behind The Mask" (нет, все-таки чувствуется здесь влияние прога, чувствуется).
Альбом смело можно назвать шедевром, хотя он и проигрывает дебюту самую малость, в основном, из-за обилия ну слишком уж прямолинейного мажора в таких песнях, как "Courage To Love Somebody", "Letter To The Future" или "Second Hand Life". Но вслушавшись, и от них начинаешь получать искреннее удовольствие.
Третий полноформатник группы, "The Roaring Of Dreams", можно считать своего рода экзаменом для нее. Было два успешных студийных альбома, после которых вышел двойной концертник "Live In Belgium", первый диск которого представлял собой живую запись с бельгийского концерта, на котором группа играла перед фантастически огромной для современного AOR-состава аудиторией в двадцать тысяч человек, а второй содержал семь песен, не вошедших ни в один номерной альбом. Естественно, была издана и видео-версия концерта. Подводя итоги вышесказанному, можно сказать, что старт новое детище без преувеличения великого сонграйтера Джима Петерика взяло очень мощный. Естественно, в воздухе повис пресловутый вопрос третьего альбома: будет ли диск так же хорош, как предыдущие? К счастью, Джим и компания достойно выдержали испытание. Всё лучшее, что может быть в жанре мелодик-рока, на этом диске присутствует. И пресса, и фэны рока это оценили: как утверждает официальный сайт группы, первые результаты продаж превысили все ожидания, а ведущий японский журнал о тяжелой музыке с мелодическим уклоном Burrn (как известно, Япония - один из основных рынков для любого исполнителя классического рока) поставил диску 94 балла из 100 возможных и назвал его альбомом месяца.
Петерик при поддержке талантливейшего вокалиста Тоби Хичкока и безупречных в профессиональном отношении музыкантов из World Stage Band радует нас двенадцатью разнообразными, очень мелодичными и богато аранжированными рок-пьесами, позволяя себе невинные эксперименты вроде использования французского горна в оптимистичной "Tall Ships" или женского вокала в завершающей альбом пронзительной балладе "Turnaround".
Слушателю же остается ждать следующий альбом от этой замечательной группы и надеяться, что каждая песня на нем будет такой же искренней и берущей за душу, как и композиции с трех первых дисков коллектива.
Flower Shop Guy (darkside.ru)


Трекер:  [ 09-Дек-2012 15:21 ]

  

Скачать .torrent

Размер .torrent файла 25 KB


Размер: 3.19 GB
Хэш (hash) релиза: d73d4336db1b34f7f78f85a7b0d81f8db2a1a204

Еще никто не оставлял запись к записи скачать торрент Pride Of Lions - Дискография 2003-2012 . Будь первым!

!Обратная связь