Скачать через торрент музыку Panzerballett - Tank Goodness - 2012, APE бесплатно без регистрации torrent

Если у вас наблюдаются проблемы со скриншотами, переходом по ссылками, скачиванием торрентов - проблемы в блокировщике рекламы AdBlock. #хорошегоДня!


Статистика раздачи
Размер:  345 MB   |    Зарегистрирован:  4 года 8 месяцев   |    .torrent скачан:  12 раз   |   
Раздают:  1  
   
Загрузка...
 
Автор Сообщение

Galfimbul

avatar Galfimbul


Panzerballett / Tank Goodness

Жанр: Jazz Rock/Fusion
Страна-производитель диска: Germany
Год издания: 2012
Издатель (лейбл): Gentle Art Of Music
Номер по каталогу: GAOM 012
Страна: Germany
Аудиокодек: APE (*.ape)
Тип рипа: image+.cue
Битрейт аудио: lossless
Продолжительность: 00:47:21
Источник (релизер): домашние закрома
Наличие сканов в содержимом раздачи: да
Треклист:
1. Some skunk funk (5:57)
2. Mustafari like di carnival (7:12)
3. Giant steps (5:05)
4. Zehrfunk (6:37)
5. (I've had) the time of my life (6:07)
6. Vulgar display of sauerkraut (5:24)
7. The ikea trauma (4:12)
8. Take five (7:07)
Exact Audio Copy V1.0 beta 3 from 29. August 2011

Отчёт EAC об извлечении, выполненном 29. ноября 2012, 14:26

Panzerballett / Tank Goodness

Дисковод: ASUS SDRW-08D1S-U Adapter: 1 ID: 0

Режим чтения : ДостоверностьИспользование точного потока : ДаОтключение кэша аудио : ДаИспользование указателей C2 : Нет

Коррекция смещения при чтении : 103Способность читать области Lead-in и Lead-out : НетЗаполнение пропущенных сэмплов тишиной : ДаУдаление блоков с тишиной в начале и конце : НетПри вычислениях CRC использовались нулевые сэмплы : ДаИнтерфейс : Встроенный Win32-интерфейс для Win NT/2000

Выходной формат : Пользовательский кодировщикВыбранный битрейт : 1024 kBit/sКачество : ВысокийДобавление ID3-тега : НетУтилита сжатия : C:\Program Files\Exact Audio Copy\Monkey's Audio\MAC.exeДополнительные параметры : %source% %dest% -c3000

TOC извлечённого CD

Трек | Старт | Длительность | Начальный сектор | Конечный сектор --------------------------------------------------------------------- 1 | 0:00.00 | 5:56.74 | 0 | 26773 2 | 5:56.74 | 7:11.07 | 26774 | 59105 3 | 13:08.06 | 5:05.33 | 59106 | 82013 4 | 18:13.39 | 6:37.01 | 82014 | 111789 5 | 24:50.40 | 6:05.69 | 111790 | 139233 6 | 30:56.34 | 5:24.01 | 139234 | 163534 7 | 36:20.35 | 4:11.61 | 163535 | 182420 8 | 40:32.21 | 7:07.01 | 182421 | 214446

Характеристики диапазона извлечения и сообщения об ошибках

Выбранный диапазон

Имя файла H:\!!!-МОИ РАЗДАЧИ-!!!\cd\Panzerballett (2012) - Tank Goodness\Panzerballett - Tank Goodness.wav

Пиковый уровень 99.7 % Скорость извлечения 2.0 X Качество диапазона 100.0 % CRC теста 87DD54A4 CRC копии 87DD54A4 Копирование... OK

Ошибок не произошло

Конец отчёта

---- CUETools DB Plugin V2.1.3

[CTDB TOCID: RifCQlDYy7sj_ICYpq4A3IBIIXw-] found, Submit result: RifCQlDYy7sj_ICYpq4A3IBIIXw- has been confirmed[cd4ad15f] (2/2) Accurately ripped

==== Контрольная сумма отчёта 6EFC63FC88CB7D18548D859D65B0AE04A15E93449961A5225B6CCBCF7B3E8851 ====
AUDIOCHECKER v2.0 beta (build 457) - by Dester - <a href="mailto:opdester@freemail.hu" class="postLink">opdester@freemail.hu</a>~~~~~~~~~~~~~~~~~~~~~~~~~~~~~~~~~~-=== НЕ РЕДАКТИРУЙТЕ ЭТОТ ФАЙЛ! ===-

Путь: ...\Panzerballett (2012) - Tank Goodness

1 -=- Panzerballett - Tank Goodness.ape -=- CDDA (100%)

199227780
Guitarist Jan Zehrfeld is the founder of this German fusion based band. In 2004 he concluded a couple of years search for skilled

musicians to play his compositions. The starting point was a quartet of saxophone, guitar, bass and drums. They then rehearsed for

half a year and started performing live. In 2005 they released their first s/t album. This albums features Zehrfeld on guitar,

Gregor Burger on tenor saxophone, Flo Schmidt on bass and Max Bucher on drums. In 2006 another guitarist, Andreas Dombert, was added

to the lineup. A new Austrian drummer, Sebastian Lanser, has also joined in recently.
Jan says that at first his vision was a mix between Planet X and Tribal Tech, but he replaced the keyboardist with saxophones, as he

did find any keyboards player. When asked for direct musical influces he mentions Meshuggah, Mats/Morgan, Dillinger Escape Plan,

Screaming Headless Torsos, and Allan Holdsworth.
Their music as Jan says, while being fusion based has various facets to it, some of it derived from funk and metal. This diverse

sound is in part due to the fact that each band member comes from a somewhat different background and has an affinity for different

musical types. Another reason that Jan mentions is the experimentation with guitar sounds to cover up the fact that there are no

keyboards and yet he wants spacey elements in his music.
His vision of their future path includes further evolving in this current direction of fusing styles, and bringing in more metal and

jazz elements. To quote his words: ".combing latin-jazz with grindcore, hard-bop with death metal, or disco-funk with hardcore".
Jan is the leader of this group and this shows also in how compositions are done. Using his computer to record his ideas, he goes on

composing the theme and then writes each of the individual parts and hands it to his band mates. Then all is left is to rehearse it.
Jan Zehrfeld - guitar, composition, arrangement
Alexander von Hagke - tenor saxophone
Joe Doblhofer - guitar
Heiko Jung - bass
Sebastian Lanser - drums

Special Guests:
Randy Brecker - trumpest on 1
Mattias IA Eklundh - vocals, guitar solo on 7
Conny Kreitmeier - vocals on 5
Ron van Lankeren - vocals on 5


Трекер:  [ 09-Дек-2012 15:18 ]

  

Скачать .torrent

Размер .torrent файла 14 KB


Размер: 345 MB
Хэш (hash) релиза: 4af0b2c63438addce1939ca6940af306b99667ee

Еще никто не оставлял запись к записи скачать торрент Panzerballett - Tank Goodness - 2012, APE . Будь первым!

!Обратная связь