Скачать через торрент музыку Irrgarten - Home And Sanctuary бесплатно без регистрации torrent

Если у вас наблюдаются проблемы со скриншотами, переходом по ссылками, скачиванием торрентов - проблемы в блокировщике рекламы AdBlock. #хорошегоДня!


Статистика раздачи
Размер:  384 MB   |    Зарегистрирован:  4 года 8 месяцев   |    .torrent скачан:  19 раз   |   
Раздают:  1  
   
Загрузка...
 
Автор Сообщение

Galfimbul

avatar Galfimbul


Irrgarten - Home And Sanctuary

Жанр: Crossover Progressive
Год выпуска диска: 1997
Страна: Canada
Label: Dedales/Ipso Facto
Catalog Nr.: DED-1001
Аудио кодек: FLAC
Тип рипа: image+.cue (test&copy)
Битрейт аудио: lossless
Продолжительность: 62:50 (54:17)
Источник: свой рип

Трэклист:

1. Look at this World (6:14)
2. Quiet Room (8:19)
3. Into the Maze (9:06)
4. Summer Afternoon (6:15)
5. Shattered Melody (12:13)
6. Close Garden (12:10)
a) The narrator
b) The Dream
c) Narrator's return (Including Nightmare)
d) The endless Sleep

Total Time: 62:50 (54:17)

Об альбоме: Единственный альбом малоизвестного квебекского проекта, испытавшего влияние многих грандов нео- и симфо-прога 70-90-х и при этом не ставшего клоном ни одного из них. Мне альбом очень понравился. Фактически с первого же прослушивания. Но это не означает, что музыка там примитивная или простецкая. Рекомендую.
- Jacques Coté / electric & acoustic guitars
- Michel Dek / vocal Cords, flute, additional keyboards
- Harold Vachon / drums, percussion
WITH:
- Steve Mercier / keyboards, piano
- Jacqueline Plante / bass
- Antoine Laprise / alto saxophone
- Marie Brien / cello
- Agnes Bilodeau, Lily Vallée, Jean-Luc Leclerc / Choir
Canadian band in the vein of early IQ, mixing the heavy GENESIS-like slant of that band with a somewhat CAMEL-esque softness that some fans will find very appealing. Imagine merging IQ's "The Wake" with MARILLION's "Misplaced Childhood" and CAMEL's "Moonmadness" and you get the idea. This band delivers a interesting blend of prog with guitar driven hard rock. Some additional instruments like flute, sax, cello among others give the music a special feel.
Exact Audio Copy V1.0 beta 3 from 29. August 2011

EAC extraction logfile from 27. November 2012, 0:12

Irrgarten / Home And Sanctuary

Used drive : TEAC CD-W516EB Adapter: 0 ID: 0

Read mode : Secure
Utilize accurate stream : Yes
Defeat audio cache : Yes
Make use of C2 pointers : No

Read offset correction : 685
Overread into Lead-In and Lead-Out : No
Fill up missing offset samples with silence : Yes
Delete leading and trailing silent blocks : No
Null samples used in CRC calculations : Yes
Used interface : Native Win32 interface for Win NT & 2000

Used output format : User Defined Encoder
Selected bitrate : 1024 kBit/s
Quality : High
Add ID3 tag : Yes
Command line compressor : C:\Program Files (x86)\FLAC\flac.exe
Additional command line options : -6 -V -T "ARTIST=%artist%" -T "TITLE=%title%" -T "ALBUM=%albumtitle%" -T "DATE=%year%" -T "TRACKNUMBER=%tracknr%" -T "GENRE=%genre%" -T "COMMENT=%comment%" %source% -o %dest%

TOC of the extracted CD

Track | Start | Length | Start sector | End sector
---------------------------------------------------------
1 | 0:00.00 | 6:12.70 | 0 | 27969
2 | 6:12.70 | 8:17.60 | 27970 | 65304
3 | 14:30.55 | 9:04.40 | 65305 | 106144
4 | 23:35.20 | 5:36.20 | 106145 | 131364
5 | 29:11.40 | 12:12.22 | 131365 | 186286
6 | 41:23.62 | 21:26.20 | 186287 | 282756

Range status and errors

Selected range

Filename Y:\EAC\wurensh\Irrgarten\Irrgarten - Home And Sanctuary.wav

Peak level 98.6 %
Extraction speed 7.9 X
Range quality 100.0 %
Test CRC 79D64B03
Copy CRC 79D64B03
Copy OK

No errors occurred

AccurateRip summary

Track 1 not present in database
Track 2 not present in database
Track 3 not present in database
Track 4 not present in database
Track 5 not present in database
Track 6 not present in database

None of the tracks are present in the AccurateRip database

End of status report
Коврики 300dpi в комплекте.
Progarchives info

Трекер:  [ 09-Дек-2012 15:18 ]

  

Скачать .torrent

Размер .torrent файла 16 KB


Размер: 384 MB
Хэш (hash) релиза: b74be279da08827742f7a57b4c406ea007c42294

Еще никто не оставлял запись к записи скачать торрент Irrgarten - Home And Sanctuary . Будь первым!

!Обратная связь