Скачать через торрент музыку The Keith Emerson Band - Three fates project - 2012, FLAC бесплатно без регистрации torrent

Если у вас наблюдаются проблемы со скриншотами, переходом по ссылками, скачиванием торрентов - проблемы в блокировщике рекламы AdBlock. #хорошегоДня!


Статистика раздачи
Размер:  377 MB   |    Зарегистрирован:  4 года 11 месяцев   |    .torrent скачан:  18 раз   |   
Раздают:  1  
   
Загрузка...
 
Автор Сообщение

Galfimbul

avatar Galfimbul


The Keith Emerson Band / Three fates project

Жанр: Crossover Progressive\Symphonic Progressive
Страна-производитель диска: Россия
Год издания: 2012
Издатель (лейбл): пиратский закос под USA
Страна: United Kingdom
Аудиокодек: FLAC (*.flac)
Тип рипа: image+.cue
Битрейт аудио: lossless
Продолжительность: 1:03:23.40
Источник (релизер): личный CD
Наличие сканов в содержимом раздачи: да
Треклист:
01. The Endless Enigma Suite Pt. 1 [0:04:08.18]
02. The Endless Enigma Suite Pt. 2 [0:03:06.54]
03. American Matador [0:05:32.03]
04. After All Of This [0:04:15.03]
05. Walking Distance [0:03:48.63]
06. Tarkus - Concertante [0:20:04.70]
07. Malambo [0:04:03.53]
08. The Mourning Sun [0:02:57.47]
09. Abaddon's Bolero [0:06:42.13]
10. Fanfare For The Common Man Pt. 1 [0:03:33.21]
11. Fanfare For The Common Man Pt. 2 [0:05:10.70]
Exact Audio Copy V1.0 beta 3 from 29. August 2011

Отчёт EAC об извлечении, выполненном 30. ноября 2012, 22:33

The Keith Emerson Band / Three fates project

Дисковод: TSSTcorpCDDVDW TS-L633J Adapter: 0 ID: 1

Режим чтения : ДостоверностьИспользование точного потока : ДаОтключение кэша аудио : ДаИспользование указателей C2 : Нет

Коррекция смещения при чтении : 6Способность читать области Lead-in и Lead-out : НетЗаполнение пропущенных сэмплов тишиной : ДаУдаление блоков с тишиной в начале и конце : НетПри вычислениях CRC использовались нулевые сэмплы : ДаИнтерфейс : Установленный внешний ASPI-интерфейс

Выходной формат : Пользовательский кодировщикВыбранный битрейт : 128 kBit/sКачество : ВысокийДобавление ID3-тега : НетУтилита сжатия : C:\Program Files\Exact Audio Copy\FLAC\FLAC.EXEДополнительные параметры : -6 -V -T "ARTIST=%artist%" -T "TITLE=%title%" -T "ALBUM=%albumtitle%" -T "DATE=%year%" -T "TRACKNUMBER=%tracknr%" -T "GENRE=%genre%" -T "COMMENT=%comment%" -T "BAND=%albuminterpret%" -T "ALBUMARTIST=%albuminterpret%" -T "COMPOSER=%composer%" %haslyrics%--tag-from-file=LYRICS="%lyricsfile%"%haslyrics% -T "DISCNUMBER=%cdnumber%" -T "TOTALDISCS=%totalcds%" -T "TOTALTRACKS=%numtracks%" %hascover%--picture="%coverfile%"%hascover% %source% -o %dest%

TOC извлечённого CD

Трек | Старт | Длительность | Начальный сектор | Конечный сектор --------------------------------------------------------------------- 1 | 0:00.00 | 4:08.18 | 0 | 18617 2 | 4:08.18 | 3:06.54 | 18618 | 32621 3 | 7:14.72 | 5:32.03 | 32622 | 57524 4 | 12:47.00 | 4:15.03 | 57525 | 76652 5 | 17:02.03 | 3:48.63 | 76653 | 93815 6 | 20:50.66 | 20:04.70 | 93816 | 184185 7 | 40:55.61 | 4:03.53 | 184186 | 202463 8 | 44:59.39 | 2:57.47 | 202464 | 215785 9 | 47:57.11 | 6:42.13 | 215786 | 245948 10 | 54:39.24 | 3:33.21 | 245949 | 261944 11 | 58:12.45 | 5:10.70 | 261945 | 285264

Характеристики диапазона извлечения и сообщения об ошибках

Выбранный диапазон

Имя файла D:\РИПЫ\KEITH EMERSON BAND\The Keith Emerson Band - Three fates project.wav

Пиковый уровень 99.3 % Скорость извлечения 3.3 X Качество диапазона 100.0 % CRC теста 16A4DF11 CRC копии 16A4DF11 Копирование... OK

Ошибок не произошло

AccurateRip: сводка

Трек 1 отсутствует в базе данныхТрек 2 отсутствует в базе данныхТрек 3 отсутствует в базе данныхТрек 4 отсутствует в базе данныхТрек 5 отсутствует в базе данныхТрек 6 отсутствует в базе данныхТрек 7 отсутствует в базе данныхТрек 8 отсутствует в базе данныхТрек 9 отсутствует в базе данныхТрек 10 отсутствует в базе данныхТрек 11 отсутствует в базе данных

Ни одного трека нет в базе AccurateRip

Конец отчёта

---- CUETools DB Plugin V2.1.3

[CTDB TOCID: 3rsqjUSfUE86ZCHpCXnlhsZcy_E-] found, Submit result: 3rsqjUSfUE86ZCHpCXnlhsZcy_E- has been confirmed[5b4a78bc] (3/3) Accurately ripped

==== Контрольная сумма отчёта 9A51770CC8C2C6E2330E3D73EB5B090FE8B4FF841019F87985C0DB08A0EF5897 ====
Keith Emerson Band formed in 2002 by keyboardist Keith Emerson (Emerson, Lake & Palmer, The Nice, etc); Members:
Keyboards: Keith Emerson Guitar/Vocals: Marc Bonilla Bass: Travis Davis Drums: Tony Pia, popular In USA,
Records: Japan Victor Columbia (JVC), EDEL (EU), Varese Sarabande (USA).
второй студийник группы, записанный с Мюнхенским оркестром Münchner Rundfunkorchester под управлением Terje Mikkelsen
- Keith Emerson / piano, moog, organ
- Marc Bonilla / guitars, mandolin
- Travis Davis / 6-string bass
- Troy Lucketta / drums
- Toss Panos / drums (3)


Трекер:  [ 09-Дек-2012 15:18 ]

  

Скачать .torrent

Размер .torrent файла 15 KB


Размер: 377 MB
Хэш (hash) релиза: 3544badeab90d7afbc917596eaccf0348d7d3e15

Еще никто не оставлял запись к записи скачать торрент The Keith Emerson Band - Three fates project - 2012, FLAC . Будь первым!

!Обратная связь