Скачать через торрент музыку Galliard - Strange Pleasure бесплатно без регистрации torrent

Если у вас наблюдаются проблемы со скриншотами, переходом по ссылками, скачиванием торрентов - проблемы в блокировщике рекламы AdBlock. #хорошегоДня!


Статистика раздачи
Размер:  270 MB   |    Зарегистрирован:  4 года 8 месяцев   |    .torrent скачан:  3 раза   |   
Раздают:  1  
   
Загрузка...
 
Автор Сообщение

Galfimbul

avatar Galfimbul


Galliard / Strange Pleasure (1969-1970)

Жанр: Prog,Jazz Rock
Год издания: 2009
Аудиокодек: FLAC (*.flac)
Тип рипа: image+.cue
Битрейт аудио: lossless
Продолжительность: 42:57
Источник (релизер): my disc
Наличие сканов в содержимом раздачи: да
Треклист:
01. Skillet [0:03:46.03]
02. A Modern Day Fairy Tale [0:03:16.30]
03. Pastorale [0:02:29.73]
04. I Wrapped Her In Ribbons [0:03:52.09]
05. Children Of The Sun [0:03:46.12]
06. Got To Make It [0:04:00.21]
07. Frog Galliard [0:03:22.42]
08. Blood [0:03:47.52]
09. Hear The Colours [0:03:48.73]
10. I Wanna Be Back Home [0:04:54.74]
11. The Hermit And The Knight-Bonus [0:02:42.41]
12. I Wrapped Her In Ribbons(Single Version)-Bonus [0:03:09.33]
Exact Audio Copy V0.99 prebeta 4 from 23. January 2008

Отчёт EAC об извлечении, выполненном 1. декабря 2012, 9:39

Galliard / Strange Pleasure

Дисковод: ASUS DRW-1814BL Adapter: 1 ID: 0

Режим чтения : ДостоверностьИспользование точного потока : ДаОтключение кэша аудио : ДаИспользование указателей C2 : Нет

Коррекция смещения при чтении : 6Способность читать области Lead-in и Lead-out : НетЗаполнение пропущенных сэмплов тишиной : ДаУдаление блоков с тишиной в начале и конце : НетПри вычислениях CRC использовались нулевые сэмплы : ДаИнтерфейс : Установленный внешний ASPI-интерфейс

Выходной формат : Пользовательский кодировщикВыбранный битрейт : 1024 kBit/sКачество : ВысокийДобавление ID3-тэга : НетУтилита сжатия : C:\Program Files\Exact Audio Copy\FLAC\FLAC.EXEДополнительные параметры : -6 -V -T "ARTIST=%a" -T "TITLE=%t" -T "ALBUM=%g" -T "DATE=%y" -T "TRACKNUMBER=%n" -T "GENRE=%m" -T "COMMENT=%e" %s -o %d

TOC извлечённого CD

Трек | Старт | Длительность | Начальный сектор | Конечный сектор --------------------------------------------------------------------- 1 | 0:00.00 | 3:46.03 | 0 | 16952 2 | 3:46.03 | 3:16.30 | 16953 | 31682 3 | 7:02.33 | 2:29.73 | 31683 | 42930 4 | 9:32.31 | 3:52.09 | 42931 | 60339 5 | 13:24.40 | 3:46.12 | 60340 | 77301 6 | 17:10.52 | 4:00.21 | 77302 | 95322 7 | 21:10.73 | 3:22.42 | 95323 | 110514 8 | 24:33.40 | 3:47.52 | 110515 | 127591 9 | 28:21.17 | 3:48.73 | 127592 | 144764 10 | 32:10.15 | 4:54.74 | 144765 | 166888 11 | 37:05.14 | 2:42.41 | 166889 | 179079 12 | 39:47.55 | 3:09.33 | 179080 | 193287

Характеристики диапазона извлечения и сообщения об ошибках

Выбранный диапазон

Имя файла D:\loSSleSS\galliard'70\Galliard - Strange Pleasure.wav

Пиковый уровень 98.8 % Качество диапазона 99.9 % CRC теста D47354A7 CRC копии D47354A7 Копирование... OK

Ошибок не произошло

AccurateRip: сводка

Трек 1 точность не определена (достоверность 3) [DF511D60], AccurateRip вернул [70171350]Трек 2 точность не определена (достоверность 3) [E866A145], AccurateRip вернул [7F68BF35]Трек 3 точность не определена (достоверность 3) [BD1FF9D8], AccurateRip вернул [073A7098]Трек 4 точность не определена (достоверность 3) [E1D91906], AccurateRip вернул [942D1E26]Трек 5 точность не определена (достоверность 3) [5E02DC39], AccurateRip вернул [2AE59F79]Трек 6 точность не определена (достоверность 3) [B26996CC], AccurateRip вернул [69B6555C]Трек 7 точность не определена (достоверность 3) [5AF09CBF], AccurateRip вернул [1FEA59FF]Трек 8 точность не определена (достоверность 3) [E07ADA37], AccurateRip вернул [74ABDCD7]Трек 9 точность не определена (достоверность 3) [F8683257], AccurateRip вернул [CC88D5E7]Трек 10 точность не определена (достоверность 3) [C43ACAE9], AccurateRip вернул [59FB8709]Трек 11 точность не определена (достоверность 3) [E8C0072A], AccurateRip вернул [5D6ABB7A]Трек 12 точность не определена (достоверность 3) [B155DFF2], AccurateRip вернул [58058A82]

Ни один трек не прошёл проверки на точностьВ вашей базе может быть иной вариант штамповки диска

Конец отчёта


Трекер:  [ 09-Дек-2012 15:18 ]

  

Скачать .torrent

Размер .torrent файла 11 KB


Размер: 270 MB
Хэш (hash) релиза: 77ab5109ed59708aebac69b7e9024af339fe22f4

Торренты, похожие на Galliard - Strange Pleasure скачать торрент

Форум Название Автор Размер S L Добавлен
Rосk | Mеtаl | Аltеrnаtivе, Рunk, Indереndеnt (losslеss) ·· (psychedelic-prog) GALLIARD-Strange pleasure-1969.New dawn-1970 - 2005, FLAC (image + .cue), lossless Galfimbul 523670203499 MB 0 0 1297859190

15:26

16-Фев-11

Еще никто не оставлял запись к записи скачать торрент Galliard - Strange Pleasure . Будь первым!

!Обратная связь