Скачать через торрент музыку Frank Zappa - London Symphony Orchestra Vol. I & II бесплатно без регистрации torrent

Если у вас наблюдаются проблемы со скриншотами, переходом по ссылками, скачиванием торрентов - проблемы в блокировщике рекламы AdBlock. #хорошегоДня!


Статистика раздачи
Размер:  545 MB   |    Зарегистрирован:  4 года 8 месяцев   |    .torrent скачан:  26 раз   |   
Раздают:  1  
   
Загрузка...
 
Автор Сообщение

Galfimbul

avatar Galfimbul


Frank Zappa / London Symphony Orchestra Vol. I & II (2012)

Жанр: Modern Classical
Страна-производитель диска: US
Год издания: 2012
Издатель (лейбл): Zappa Records
Номер по каталогу: ZR 3868
Страна: US
Аудиокодек: FLAC (*.flac)
Тип рипа: image+.cue
Битрейт аудио: lossless
Продолжительность: 49:45+46:04
Источник (релизер): собственный рип с фирменного диска
Наличие сканов в содержимом раздачи: да
Треклист:
Disc One:
1. Bob In Dacron, First Movement 5:37
2. Bob In Dacron, Second Movement 6:34
3. Sad Jane, First Movement 4:46
4. Sad Jane, Second Movement 5:05
5. Mo 'N Herb's Vacation, First Movement 4:48
6. Mo 'N Herb's Vacation, Second Movement 10:04
7. Mo 'N Herb's Vacation, Third Movement 12:50

Disc Two:
1. Envelopes 4:06
2. Pedro's Dowry 10:26
3. Bogus Pomp 24:34
4. Strictly Genteel 6:58
Exact Audio Copy V1.0 beta 3 from 29. August 2011

EAC extraction logfile from 24. November 2012, 22:52

Frank Zappa / London Symphony Orchestra, Volumes I & II

Used drive : MATSHITADVD-RAM UJ-860S Adapter: 1 ID: 0

Read mode : SecureUtilize accurate stream : YesDefeat audio cache : YesMake use of C2 pointers : No

Read offset correction : 102Overread into Lead-In and Lead-Out : NoFill up missing offset samples with silence : YesDelete leading and trailing silent blocks : NoNull samples used in CRC calculations : YesUsed interface : Native Win32 interface for Win NT & 2000

Used output format : User Defined EncoderSelected bitrate : 128 kBit/sQuality : HighAdd ID3 tag : NoCommand line compressor : C:\Program Files\Exact Audio Copy\Flac\flac.exeAdditional command line options : -V -8 -T "Date=%year%" -T "Genre=%genre%" %source%

TOC of the extracted CD

Track | Start | Length | Start sector | End sector --------------------------------------------------------- 1 | 0:00.00 | 5:37.31 | 0 | 25305 2 | 5:37.31 | 6:34.22 | 25306 | 54877 3 | 12:11.53 | 4:46.23 | 54878 | 76350 4 | 16:58.01 | 5:04.51 | 76351 | 99201 5 | 22:02.52 | 4:48.00 | 99202 | 120801 6 | 26:50.52 | 10:04.36 | 120802 | 166137 7 | 36:55.13 | 12:50.15 | 166138 | 223902

Range status and errors

Selected range

Filename C:\FZ\1983-#38_48.London_Symphony_Orchestra\CD1\CD.wav

Peak level 100.0 % Extraction speed 2.4 X Range quality 99.9 % Test CRC FFC4C090 Copy CRC FFC4C090 Copy OK

No errors occurred

AccurateRip summary

Track 1 not present in databaseTrack 2 not present in databaseTrack 3 not present in databaseTrack 4 not present in databaseTrack 5 not present in databaseTrack 6 not present in databaseTrack 7 not present in database

None of the tracks are present in the AccurateRip database

End of status report

==== Log checksum 2995C3F100BE761E9BAFE7D4E5930E6339C42C89422DAECBE2A7420243C2CA0A ====
Exact Audio Copy V1.0 beta 3 from 29. August 2011

EAC extraction logfile from 24. November 2012, 23:33

Frank Zappa / London Symphony Orchestra, Volumes I & II

Used drive : MATSHITADVD-RAM UJ-860S Adapter: 1 ID: 0

Read mode : SecureUtilize accurate stream : YesDefeat audio cache : YesMake use of C2 pointers : No

Read offset correction : 102Overread into Lead-In and Lead-Out : NoFill up missing offset samples with silence : YesDelete leading and trailing silent blocks : NoNull samples used in CRC calculations : YesUsed interface : Native Win32 interface for Win NT & 2000

Used output format : User Defined EncoderSelected bitrate : 128 kBit/sQuality : HighAdd ID3 tag : NoCommand line compressor : C:\Program Files\Exact Audio Copy\Flac\flac.exeAdditional command line options : -V -8 -T "Date=%year%" -T "Genre=%genre%" %source%

TOC of the extracted CD

Track | Start | Length | Start sector | End sector --------------------------------------------------------- 1 | 0:00.00 | 4:06.27 | 0 | 18476 2 | 4:06.27 | 10:25.61 | 18477 | 65412 3 | 14:32.13 | 24:34.07 | 65413 | 175969 4 | 39:06.20 | 6:57.60 | 175970 | 207304

Range status and errors

Selected range

Filename C:\FZ\1983-#38_48.London_Symphony_Orchestra\CD2\CD.wav

Peak level 100.0 % Extraction speed 2.4 X Range quality 100.0 % Test CRC CB64AFCD Copy CRC CB64AFCD Copy OK

No errors occurred

AccurateRip summary

Track 1 not present in databaseTrack 2 not present in databaseTrack 3 not present in databaseTrack 4 not present in database

None of the tracks are present in the AccurateRip database

End of status report

==== Log checksum 5049208A45A7B27A80656DEE2E39557E89B9374842B700BC741187A0AD2535A0 ====


Трекер:  [ 09-Дек-2012 15:18 ]

  

Скачать .torrent

Размер .torrent файла 22 KB


Размер: 545 MB
Хэш (hash) релиза: b19273601ecee7d8ed32aad13fc4cf4fcc972730

Еще никто не оставлял запись к записи скачать торрент Frank Zappa - London Symphony Orchestra Vol. I & II . Будь первым!

!Обратная связь