Скачать через торрент музыку Frank Zappa - Jazz From Hell бесплатно без регистрации torrent

Если у вас наблюдаются проблемы со скриншотами, переходом по ссылками, скачиванием торрентов - проблемы в блокировщике рекламы AdBlock. #хорошегоДня!


Статистика раздачи
Размер:  219 MB   |    Зарегистрирован:  4 года 10 месяцев   |    .torrent скачан:  23 раза   |   
Раздают:  1  
   
Загрузка...
 
Автор Сообщение

Galfimbul

avatar Galfimbul


Frank Zappa / Jazz From Hell (2012)

Жанр: Avant-rock
Страна-производитель диска: US
Год издания: 2012
Издатель (лейбл): Zappa Records
Номер по каталогу: ZR 3875
Страна: US
Аудиокодек: FLAC (*.flac)
Тип рипа: image+.cue
Битрейт аудио: lossless
Продолжительность: 34:40
Источник (релизер): собственный рип с фирменного диска
Наличие сканов в содержимом раздачи: да
Треклист:
1. Night School 4:51
2. The Beltway Bandits 3:26
3. While You Were Art II 7:18
4. Jazz From Hell 3:00
5. G-Spot Tornado 3:17
6. Damp Ankles 3:45
7. St. Etienne 6:27
8. Massaggio Galore 2:36
Exact Audio Copy V1.0 beta 3 from 29. August 2011

EAC extraction logfile from 24. November 2012, 17:28

Frank Zappa / Jazz From Hell

Used drive : MATSHITADVD-RAM UJ-860S Adapter: 1 ID: 0

Read mode : SecureUtilize accurate stream : YesDefeat audio cache : YesMake use of C2 pointers : No

Read offset correction : 102Overread into Lead-In and Lead-Out : NoFill up missing offset samples with silence : YesDelete leading and trailing silent blocks : NoNull samples used in CRC calculations : YesUsed interface : Native Win32 interface for Win NT & 2000

Used output format : User Defined EncoderSelected bitrate : 128 kBit/sQuality : HighAdd ID3 tag : NoCommand line compressor : C:\Program Files\Exact Audio Copy\Flac\flac.exeAdditional command line options : -V -8 -T "Date=%year%" -T "Genre=%genre%" %source%

TOC of the extracted CD

Track | Start | Length | Start sector | End sector --------------------------------------------------------- 1 | 0:00.00 | 4:50.44 | 0 | 21793 2 | 4:50.44 | 3:26.11 | 21794 | 37254 3 | 8:16.55 | 7:17.71 | 37255 | 70100 4 | 15:34.51 | 3:00.32 | 70101 | 83632 5 | 18:35.08 | 3:17.32 | 83633 | 98439 6 | 21:52.40 | 3:45.35 | 98440 | 115349 7 | 25:38.00 | 6:26.66 | 115350 | 144365 8 | 32:04.66 | 2:35.74 | 144366 | 156064

Range status and errors

Selected range

Filename C:\FZ\1986-#47.Jazz_From_Hell\CD.wav

Peak level 100.0 % Extraction speed 2.2 X Range quality 100.0 % Test CRC 8A92FA6E Copy CRC 8A92FA6E Copy OK

No errors occurred

AccurateRip summary

Track 1 not present in databaseTrack 2 not present in databaseTrack 3 not present in databaseTrack 4 not present in databaseTrack 5 not present in databaseTrack 6 not present in databaseTrack 7 not present in databaseTrack 8 not present in database

None of the tracks are present in the AccurateRip database

End of status report

==== Log checksum 62D33120E616B19D4D20477672A4D72A46917F87587CF7644304567D19F44B8B ====


Трекер:  [ 09-Дек-2012 15:18 ]

  

Скачать .torrent

Размер .torrent файла 35 KB


Размер: 219 MB
Хэш (hash) релиза: c2b870a0f94a471364ccc4f47345b4de95f2763d

Торренты, похожие на Frank Zappa - Jazz From Hell скачать торрент

Форум Название Автор Размер S L Добавлен
Rосk | Mеtаl | Аltеrnаtivе, Рunk, Indереndеnt (losslеss) ·· (Rock, Experimental Rock, Synclavier) Frank Zappa - Jazz From Hell - 1986, APE (image + .cue), lossless Galfimbul 267640331255 MB 0 0 1297859344

15:29

16-Фев-11

Еще никто не оставлял запись к записи скачать торрент Frank Zappa - Jazz From Hell . Будь первым!

!Обратная связь