Скачать через торрент музыку Sunday - 1971 - Sunday бесплатно без регистрации torrent

Если у вас наблюдаются проблемы со скриншотами, переходом по ссылками, скачиванием торрентов - проблемы в блокировщике рекламы AdBlock. #хорошегоДня!


Статистика раздачи
Размер:  311 MB   |    Зарегистрирован:  4 года 8 месяцев   |    .torrent скачан:  32 раза   |   
Раздают:  1  
   
Загрузка...
 
Автор Сообщение

Galfimbul

avatar Galfimbul


Sunday / 1971 /Sunday (2011 remastered)

Жанр: Psychedelic Prog
Страна-производитель диска: Sweden
Год издания: 2011
Издатель (лейбл): Flawed Gems
Номер по каталогу: GEM26
Страна: Scotland
Аудиокодек: FLAC (*.flac)
Тип рипа: image+.cue
Битрейт аудио: lossless
Продолжительность: 00:48:47
Источник (релизер): (antonyart)
Наличие сканов в содержимом раздачи:
Треклист:
01. Love Is Life
02. I Couldn't Face You (Part 1)
03. I Couldn't Face You (Part 2)
04. Blues Song
05. Man in a Boat
06. Ain't It a Pity
07. Tree of Live
08. Sad Man Reaching Utopia
09. Fussing and Fighting
Exact Audio Copy V1.0 beta 3 from 29. August 2011

EAC extraction logfile from 7. November 2012, 19:11

Sunday / Sunday

Used drive : HL-DT-STDVDRAM GT34N Adapter: 0 ID: 2

Read mode : SecureUtilize accurate stream : YesDefeat audio cache : YesMake use of C2 pointers : No

Read offset correction : 103Overread into Lead-In and Lead-Out : NoFill up missing offset samples with silence : YesDelete leading and trailing silent blocks : NoNull samples used in CRC calculations : YesUsed interface : Native Win32 interface for Win NT & 2000

Used output format : User Defined EncoderSelected bitrate : 896 kBit/sQuality : HighAdd ID3 tag : YesCommand line compressor : C:\Program Files (x86)\Exact Audio Copy\FLAC\FLAC.EXEAdditional command line options : -6 -V -T "ARTIST=%artist%" -T "TITLE=%title%" -T "ALBUM=%albumtitle%" -T "DATE=%year%" -T "TRACKNUMBER=%tracknr%" -T "GENRE=%genre%" -T "COMMENT=%comment%" -T "BAND=%albuminterpret%" -T "ALBUMARTIST=%albuminterpret%" -T "COMPOSER=%composer%" %haslyrics%--tag-from-file=LYRICS="%lyricsfile%"%haslyrics% -T "DISCNUMBER=%cdnumber%" -T "TOTALDISCS=%totalcds%" -T "TOTALTRACKS=%numtracks%" %hascover%--picture="%coverfile%"%hascover% %source% -o %dest%

TOC of the extracted CD

Track | Start | Length | Start sector | End sector --------------------------------------------------------- 1 | 0:00.00 | 6:09.20 | 0 | 27694 2 | 6:09.20 | 2:52.57 | 27695 | 40651 3 | 9:02.02 | 5:04.48 | 40652 | 63499 4 | 14:06.50 | 4:17.41 | 63500 | 82815 5 | 18:24.16 | 4:55.56 | 82816 | 104996 6 | 23:19.72 | 3:53.26 | 104997 | 122497 7 | 27:13.23 | 3:53.72 | 122498 | 140044 8 | 31:07.20 | 10:50.70 | 140045 | 188864 9 | 41:58.15 | 6:47.44 | 188865 | 219433

Range status and errors

Selected range

Filename D:\FLAC\SUNDAY -71- Sunday\Sunday - Sunday.wav

Peak level 98.8 % Extraction speed 2.0 X Range quality 100.0 % Copy CRC 87C630A7 Copy OK

No errors occurred

AccurateRip summary

Track 1 not present in databaseTrack 2 not present in databaseTrack 3 not present in databaseTrack 4 not present in databaseTrack 5 not present in databaseTrack 6 not present in databaseTrack 7 not present in databaseTrack 8 not present in databaseTrack 9 not present in database

None of the tracks are present in the AccurateRip database

End of status report

==== Log checksum C49588B6754CDAF32637D1C560302B724427A3F97D38A7DB3E7C5E93C1922205 ====
REM GENRE "Psychedelic Prog/Scotland"REM DATE 1971REM DISCID 6C0B6D09REM COMMENT "ExactAudioCopy v1.0b3"PERFORMER "Sunday"TITLE "Sunday"FILE "Sunday - Sunday.flac" WAVE TRACK 01 AUDIO TITLE "Love Is Life" PERFORMER "Sunday" INDEX 01 00:00:00 TRACK 02 AUDIO TITLE "I Couldn't Face You (Part 1)" PERFORMER "Sunday" INDEX 00 06:07:20 INDEX 01 06:09:20 TRACK 03 AUDIO TITLE "I Couldn't Face You (Part 2)" PERFORMER "Sunday" INDEX 01 09:02:02 TRACK 04 AUDIO TITLE "Blues Song" PERFORMER "Sunday" INDEX 00 14:04:50 INDEX 01 14:06:50 TRACK 05 AUDIO TITLE "Man In A Boat" PERFORMER "Sunday" INDEX 00 18:22:16 INDEX 01 18:24:16 TRACK 06 AUDIO TITLE "Ain't It A Pity" PERFORMER "Sunday" INDEX 00 23:17:72 INDEX 01 23:19:72 TRACK 07 AUDIO TITLE "Tree Of Live" PERFORMER "Sunday" INDEX 00 27:11:23 INDEX 01 27:13:23 TRACK 08 AUDIO TITLE "Sad Man Reaching Utopia" PERFORMER "Sunday" INDEX 00 31:05:20 INDEX 01 31:07:20 TRACK 09 AUDIO TITLE "Fussing And Fighting" PERFORMER "Sunday" INDEX 00 41:56:15 INDEX 01 41:58:15
-----------------------

DON'T MODIFY THIS FILE

-----------------------

PERFORMER: auCDtect Task Manager, ver. 1.5.1RC6 build 1.5.1.7Copyright (c) 2008-2010 y-soft. All rights reservedhttp://y-soft.org

ANALYZER: auCDtect: CD records authenticity detector, version 0.8.2Copyright (c) 2004 Oleg Berngardt. All rights reserved.Copyright (c) 2004 Alexander Djourik. All rights reserved.

FILE: Sunday - Sunday.flac Size: 311166493 Hash: BAA46A142B5C9B7C6E217171178F354D Accuracy: -m0 Conclusion: CDDA 100% Signature: EB474A0F9E5CBE9CB03447C5FA214419A4607562
Rating 3.63 from 43 ratings according to RYM

Reviews:
"Although recorded in London, this album of very atmospheric and melodic progressive rock by what seems to be a Scottish crew was only released in Germany. The music is generally very thoughtful and in quite a few places bluesy. Still there is your usual share of guitar solos and organ riffs, at times provoking Beggars Opera at their least arty. The album is undoubtedly as good as most in this class and it is hard to understand why they couldn't secure a UK release. The cover depicts a miraculous painting by Lyonel Feininger, a sure sign of good taste.
The opener, “Love Is Life”, is a rambunctious rocker with a relentless drum beat, great dynamic breaks and an underlying organ riff, kicking the doors open in style. “I Couldn’t Face You” is a ballad with an interesting bluesy melody and a piano-organ arrangement reminiscent of Procol Harum. Following the slow melancholy of “Blues Song”, there’s the odd “Man In A Boat”, a cod-psychedelic trip featuring once again Gary Brooker-like Hammond sound – slow-paced and majestic and set to an almost marching beat.
Mid-song it resolves into an energetic mid-paced rocker. “Ain’t It A Pity” captures and preserves for posterity the freewheeling spirit of the times perfectly – complete with free-flowing organ, piano and guitar parts and uninhibited, commanding and attention-grabbing vocals. “Tree Of Life” takes the pace down a notch but continues on in much the same style; and tells a story..."
Marios for rockasteria

"The sole album from this British progressive quartet was released only in Germany (in 1971) on Bellaphon label - home of the other little known UK bands, like Diabolus, Crazy Mabel and Little Big Horn. The sound of Sunday was a superb combination of a quite intensive and powerful Hammond organ-driven parts linked (in the background) with some piano notes, spontaneous electric guitar leads and powerful rhythm section - with more than a trace of blues and psychedelia. It can be compared to the Jody Grind (their member, Pete Gavin was a drummer, here...), Atomic Rooster, early Argent, Procol Harum (at their heaviest) and late 60' s Pink Floyd..."
Flawed Gems
Jimmy Forest - piano, organ, vocals
John Barclay - guitar, vocals
Davy Patterson - lead vocals, bass
Pete Gavin - percussion
Доп. информация: "...This CD edition was carefully remastered from the original, analogue source and sounds really great!" (Flawed Gems)

Трекер:  [ 09-Дек-2012 15:18 ]

  

Скачать .torrent

Размер .torrent файла 13 KB


Размер: 311 MB
Хэш (hash) релиза: 43fffcc35ebbc1f3127f51e4099b34e4ce7d3877

Еще никто не оставлял запись к записи скачать торрент Sunday - 1971 - Sunday . Будь первым!

!Обратная связь