Скачать через торрент музыку Ame Son бесплатно без регистрации torrent

Если у вас наблюдаются проблемы со скриншотами, переходом по ссылками, скачиванием торрентов - проблемы в блокировщике рекламы AdBlock. #хорошегоДня!


Статистика раздачи
Размер:  423 MB   |    Зарегистрирован:  4 года 10 месяцев   |    .torrent скачан:  6 раз   |   
Раздают:  1  
   
Загрузка...
 
Автор Сообщение

Galfimbul

avatar Galfimbul


Ame Son (Âme son, L'Âme son) / 1970 / Catalyse (2011 remastered)

Жанр: Psychedelic Prog
Страна-производитель диска: Sweden
Год издания: 2011
Издатель (лейбл): Flawed Gems
Номер по каталогу: GEM 28
Страна: France
Аудиокодек: FLAC (*.flac)
Тип рипа: image+.cue
Битрейт аудио: lossless
Продолжительность: 01:19:50
Источник (релизер): (antonyart)
Наличие сканов в содержимом раздачи:
Треклист:
01. Hein, quant a toi
including Comme est morte l'évocation
including Hommage
02. Seventh Time Key
including I Just Want To Say
03. Coeur fou
including Le globule
including [b]Le mal sonne
[/b]
04. Eclosion
including Marie aux quatre vents
05. Reborn This Morning On The Way Of...
including Unity
06. A coup de hache
including Les sables mouvent
Bonus Tracks:
07. Je veux juste dire (A-Side 1969 SP)
08. Unity (B-Side 1969 SP)
09. Le grand cirque de la lune (1969)
10. Je veux juste dire (1971 demo)
11. Hein! Quant a toi (1971)
Exact Audio Copy V1.0 beta 3 from 29. August 2011

EAC extraction logfile from 14. November 2012, 10:57

Ame Son / Catalyse

Used drive : HL-DT-STDVDRAM GT34N Adapter: 0 ID: 2

Read mode : SecureUtilize accurate stream : YesDefeat audio cache : YesMake use of C2 pointers : No

Read offset correction : 103Overread into Lead-In and Lead-Out : NoFill up missing offset samples with silence : YesDelete leading and trailing silent blocks : NoNull samples used in CRC calculations : YesUsed interface : Native Win32 interface for Win NT & 2000

Used output format : User Defined EncoderSelected bitrate : 896 kBit/sQuality : HighAdd ID3 tag : YesCommand line compressor : C:\Program Files (x86)\Exact Audio Copy\FLAC\FLAC.EXEAdditional command line options : -6 -V -T "ARTIST=%artist%" -T "TITLE=%title%" -T "ALBUM=%albumtitle%" -T "DATE=%year%" -T "TRACKNUMBER=%tracknr%" -T "GENRE=%genre%" -T "COMMENT=%comment%" -T "BAND=%albuminterpret%" -T "ALBUMARTIST=%albuminterpret%" -T "COMPOSER=%composer%" %haslyrics%--tag-from-file=LYRICS="%lyricsfile%"%haslyrics% -T "DISCNUMBER=%cdnumber%" -T "TOTALDISCS=%totalcds%" -T "TOTALTRACKS=%numtracks%" %hascover%--picture="%coverfile%"%hascover% %source% -o %dest%

TOC of the extracted CD

Track | Start | Length | Start sector | End sector --------------------------------------------------------- 1 | 0:00.00 | 6:40.12 | 0 | 30011 2 | 6:40.12 | 6:13.28 | 30012 | 58014 3 | 12:53.40 | 8:13.15 | 58015 | 95004 4 | 21:06.55 | 5:32.15 | 95005 | 119919 5 | 26:38.70 | 6:19.40 | 119920 | 148384 6 | 32:58.35 | 6:57.07 | 148385 | 179666 7 | 39:55.42 | 2:55.36 | 179667 | 192827 8 | 42:51.03 | 3:59.07 | 192828 | 210759 9 | 46:50.10 | 6:31.32 | 210760 | 240116 10 | 53:21.42 | 25:50.50 | 240117 | 356416 11 | 79:12.17 | 0:36.35 | 356417 | 359151

Range status and errors

Selected range

Filename D:\FLAC\AME SON -70- Catalyse\Ame Son - Catalyse.wav

Peak level 98.8 % Extraction speed 2.3 X Range quality 100.0 % Test CRC 26E27AE3 Copy CRC 26E27AE3 Copy OK

No errors occurred

AccurateRip summary

Track 1 not present in databaseTrack 2 not present in databaseTrack 3 not present in databaseTrack 4 not present in databaseTrack 5 not present in databaseTrack 6 not present in databaseTrack 7 not present in databaseTrack 8 not present in databaseTrack 9 not present in databaseTrack 10 not present in databaseTrack 11 not present in database

None of the tracks are present in the AccurateRip database

End of status report

==== Log checksum D38800E4F14B2B40C459FE549C69D39B8C05447046805982575939306E3FBD81 ====
REM GENRE "Psychedelic Prog/France"REM DATE 1970REM DISCID 9412B40BREM COMMENT "ExactAudioCopy v1.0b3"PERFORMER "Ame Son"TITLE "Catalyse"FILE "Ame Son - Catalyse.flac" WAVE TRACK 01 AUDIO TITLE "Hein, quant a toi (including: Comme est morte l'évocation / Hommage)" PERFORMER "Ame Son" INDEX 01 00:00:00 TRACK 02 AUDIO TITLE "Seventh Time Key (including: I Just Want To Say)" PERFORMER "Ame Son" INDEX 00 06:38:12 INDEX 01 06:40:12 TRACK 03 AUDIO TITLE "Coeur fou (including: Le globule / Le mal sonne)" PERFORMER "Ame Son" INDEX 00 12:51:40 INDEX 01 12:53:40 TRACK 04 AUDIO TITLE "Eclosion (including: Marie aux quatre vents)" PERFORMER "Ame Son" INDEX 00 21:04:55 INDEX 01 21:06:55 TRACK 05 AUDIO TITLE "Reborn This Morning On The Way Of... (including: Unity)" PERFORMER "Ame Son" INDEX 00 26:36:70 INDEX 01 26:38:70 TRACK 06 AUDIO TITLE "A coup de hache (including: Les sables mouvent)" PERFORMER "Ame Son" INDEX 00 32:56:35 INDEX 01 32:58:35 TRACK 07 AUDIO TITLE "Je veux juste dire (bonus: A-Side 1969 SP)" PERFORMER "Ame Son" INDEX 00 39:50:42 INDEX 01 39:55:42 TRACK 08 AUDIO TITLE "Unity (bonus: B-Side 1969 SP)" PERFORMER "Ame Son" INDEX 00 42:49:03 INDEX 01 42:51:03 TRACK 09 AUDIO TITLE "Le grand cirque de la lune (bonus: 1969)" PERFORMER "Ame Son" INDEX 00 46:48:10 INDEX 01 46:50:10 TRACK 10 AUDIO TITLE "Je veux juste dire (bonus: 1971 demo)" PERFORMER "Ame Son" INDEX 00 53:19:42 INDEX 01 53:21:42 TRACK 11 AUDIO TITLE "Hein! Quant a toi (bonus: 1971)" PERFORMER "Ame Son" INDEX 00 79:10:17 INDEX 01 79:12:17
-----------------------

DON'T MODIFY THIS FILE

-----------------------

PERFORMER: auCDtect Task Manager, ver. 1.5.1RC6 build 1.5.1.7Copyright (c) 2008-2010 y-soft. All rights reservedhttp://y-soft.org

ANALYZER: auCDtect: CD records authenticity detector, version 0.8.2Copyright (c) 2004 Oleg Berngardt. All rights reserved.Copyright (c) 2004 Alexander Djourik. All rights reserved.

FILE: Ame Son - Catalyse.flac Size: 427027809 Hash: 214B4E466F60DA6958DF25D465635E00 Accuracy: -m0 Conclusion: MPEG 95% Signature: 84042E6CCD72C728F67DF5D4C2EA7FE1E6525108
"В 1967 году, когда Дэвид Аллен (Daevid Allen) ушел из The Soft Machine, он познакомился с Марком Бланком (Marc Blanc) и Патриком Фонтэйном (Patrick Fontaine). Оба они впоследствии играли в его проекте Bananamoon в Испании летом 1968 и на юге Франции в начале 1969 годов. В июне 1969 года они сформировали Ame Son. В состав вошли также Франсуа Гаррэль (François Garrel) (флейта) и Бернард Лавиолле (Bernard Lavialle) (гитара). Официально у группы вышло два великолепных альбома: Catalyse (1970) и Primitive Expression (1976), с котрыми они отыграли на многих серьезных фестивалях: Amougies, Les halles, Biot, Le Bourget и т.д., на которых имели очень большой успех, как у слушателя, так и у музыкальной критики. В музыке группы чувствовалось сильное влияние ранних Gong с длинными психоделическими джэм-сейшенами, разбавленными флейтой и гитарой. В 1971 году группа распалась, но в 1973 собралась вновь в измененном составе. Говорят, что они до сих пор все еще играют вместе время от времени."
"Культурный обозреватель"
Rating 3.41 from 110 ratings according to RYM

Review
"This fantastic album has been released in early 1970 on French BYG Actuel label (home of Gong, Alan Jack Civilisation and Freedom) and at the time it was one of the earliest French rock albums! Catalyse LP consisted a powerful collection of largely instrumental and improvised progressive music with strong psychedelic and jazz infuences, where electric guitars and flute parts were backed by very busy rhythm section and David Allen-like vocals. The music of Ame Son often sounded like a combination of early Gong, late 60 ‘s Pink Floyd, Group 1850 and even Jethro Tull. In addition 5 rare tracks (from 1969 to 1971) have been added - including rare, non-LP single..."
Flawed Gems
Bernard Lavialle - guitar
Patrick Fontaine - bass guitar
Marc Blanc - voice, drums
Francois Garrel - voice, flute


Трекер:  [ 09-Дек-2012 15:18 ]

  

Скачать .torrent

Размер .torrent файла 17 KB


Размер: 423 MB
Хэш (hash) релиза: a01d597c5c46af75247765d08c7f35f3a8f76318

Еще никто не оставлял запись к записи скачать торрент Ame Son . Будь первым!

!Обратная связь