Скачать через торрент музыку Rush - коллекция редких изданий 7 CD - 1978-1984, FLAC бесплатно без регистрации torrent

Если у вас наблюдаются проблемы со скриншотами, переходом по ссылками, скачиванием торрентов - проблемы в блокировщике рекламы AdBlock. #хорошегоДня!


Статистика раздачи
Размер:  1.84 GB   |    Зарегистрирован:  4 года 8 месяцев   |    .torrent скачан:  11 раз   |   
Раздают:  1  
   
Загрузка...
 
Автор Сообщение

Galfimbul

avatar Galfimbul


Rush - коллекция

Жанр: Heavy Prog
Год выпуска диска: 1978-1984 ??
Страна: Canada
Аудио кодек: FLAC
Тип рипа: tracks+.cue
Битрейт аудио: lossless
Наличие сканов в содержимом раздачи: да

Состав:
- Geddy Lee
- Alex Lifeson
- Neil Peart

Доп. информация: http://www.progarchives.com/artist.asp?id=609
Продолжительность: 36:13

Трэклист:
1. Hemispheres (18:04)
- (i) Prelude (4:27)
- (ii) Apollo/ Dionysus (4:36)
- (iii) Armageddon (2:55)
- (iv) Cygnus (5:01)
- (v) The Sphere (1:02)
2. Circumstances (3:40)
3. The Trees (4:42)
4. La Villa Strangiato: (9:35)
Exact Audio Copy V0.99 prebeta 5 from 4. May 2009

EAC extraction logfile from 22. June 2012, 22:42

Rush / Hemispheres

Used drive : HL-DT-STDVD+-RW GSA-H73N Adapter: 1 ID: 0

Read mode : SecureUtilize accurate stream : YesDefeat audio cache : YesMake use of C2 pointers : No

Read offset correction : 102Overread into Lead-In and Lead-Out : NoFill up missing offset samples with silence : YesDelete leading and trailing silent blocks : NoNull samples used in CRC calculations : YesUsed interface : Native Win32 interface for Win NT & 2000Gap handling : Appended to previous track

Used output format : User Defined EncoderSelected bitrate : 768 kBit/sQuality : HighAdd ID3 tag : NoCommand line compressor : D:\Program Files (x86)\Exact Audio Copy\FLAC\FLAC.EXEAdditional command line options : -V -8 -T "artist=%a" -T "title=%t" -T "album=%g" -T "date=%y" -T "tracknumber=%n" -T "genre=%m" %s

TOC of the extracted CD

Track | Start | Length | Start sector | End sector --------------------------------------------------------- 1 | 0:01.00 | 18:08.03 | 75 | 81677 2 | 18:09.03 | 3:44.45 | 81678 | 98522 3 | 21:53.48 | 4:45.02 | 98523 | 119899 4 | 26:38.50 | 9:35.43 | 119900 | 163067

Track 1

Filename D:\Users\Alan\Downloads\Rush - Hemispheres (Anthem WANK-1014)\01 Cygnus X-1 Book II Hemispheres.wav

Pre-gap length 0:00:03.00

Peak level 94.9 % Track quality 99.9 % Test CRC 95705933 Copy CRC 95705933 Accurately ripped (confidence 10) [A853A363] Copy OK

Track 2

Filename D:\Users\Alan\Downloads\Rush - Hemispheres (Anthem WANK-1014)\02 Circumstances.wav

Pre-gap length 0:00:02.57

Peak level 88.4 % Track quality 100.0 % Test CRC 2305187F Copy CRC 2305187F Accurately ripped (confidence 11) [29571743] Copy OK

Track 3

Filename D:\Users\Alan\Downloads\Rush - Hemispheres (Anthem WANK-1014)\03 The Trees.wav

Pre-gap length 0:00:03.30

Peak level 86.7 % Track quality 100.0 % Test CRC 651021B6 Copy CRC 651021B6 Accurately ripped (confidence 11) [53ECD7F1] Copy OK

Track 4

Filename D:\Users\Alan\Downloads\Rush - Hemispheres (Anthem WANK-1014)\04 La Villa Strangiato.wav

Pre-gap length 0:00:04.42

Peak level 99.9 % Track quality 100.0 % Test CRC 5D49790B Copy CRC 5D49790B Accurately ripped (confidence 11) [86B441B0] Copy OK

All tracks accurately ripped

No errors occurred

End of status report
REM GENRE "Progressive Rock"REM DATE 1978REM DISCID 1F087D04REM COMMENT "ExactAudioCopy v0.99pb5"FILE "01 Cygnus X-1 Book II Hemispheres.wav" WAVE TRACK 01 AUDIO PREGAP 00:01:00 INDEX 01 00:00:00 INDEX 02 04:29:18 INDEX 03 09:05:33 INDEX 04 12:01:30 INDEX 05 17:02:38 TRACK 02 AUDIO INDEX 00 18:05:35FILE "02 Circumstances.wav" WAVE INDEX 01 00:00:00 TRACK 03 AUDIO INDEX 00 03:41:22FILE "03 The Trees.wav" WAVE INDEX 01 00:00:00 TRACK 04 AUDIO INDEX 00 04:40:45FILE "04 La Villa Strangiato.wav" WAVE INDEX 01 00:00:00
[CUETools log; Date: 01.12.2012 23:06:00; Version: 2.1.4]Pregap length 00:01:00.[CTDB TOCID: CjfvXjzGvNQNZcluGRFZA66ZEmQ-] found.Track | CTDB Status 1 | (1/1) Accurately ripped 2 | (1/1) Accurately ripped 3 | (1/1) Accurately ripped 4 | (1/1) Accurately ripped[AccurateRip ID: 0007118c-001ac354-1f087d04] found.Track [ CRC | V2 ] Status 01 [a853a363|1b99e2c0] (10+05/15) Accurately ripped 02 [29571743|3e46e842] (11+05/16) Accurately ripped 03 [53ecd7f1|119cf112] (11+05/16) Accurately ripped 04 [86b441b0|3e50f6d5] (11+05/16) Accurately ripped

Track Peak [ CRC32 ] [W/O NULL] [ LOG ] -- 99,9 [28C2F94B] [6A8838E4] 01 94,9 [95705933] [50FCBA5B] CRC32 02 88,4 [2305187F] [59058644] CRC32 03 86,7 [651021B6] [55097F66] CRC32 04 99,9 [5D49790B] [7D41A4BC] CRC32
Продолжительность: 40:08

Трэклист:
1. Tom Sawyer (4:34)
2. Red Barchetta (6:08)
3. YYZ (4:24)
4. Limelight (4:21)
5. The Camera Eye (10:57)
6. Witch Hunt (Part III of Fear) (4:44)
7. Vital Signs (4:47)
Exact Audio Copy V0.99 prebeta 5 from 4. May 2009

EAC extraction logfile from 9. June 2012, 20:46

Rush / Moving Pictures

Used drive : HL-DT-STDVD+-RW GSA-H73N Adapter: 1 ID: 0

Read mode : SecureUtilize accurate stream : YesDefeat audio cache : YesMake use of C2 pointers : No

Read offset correction : 102Overread into Lead-In and Lead-Out : NoFill up missing offset samples with silence : YesDelete leading and trailing silent blocks : NoNull samples used in CRC calculations : YesUsed interface : Native Win32 interface for Win NT & 2000Gap handling : Appended to previous track

Used output format : User Defined EncoderSelected bitrate : 768 kBit/sQuality : HighAdd ID3 tag : NoCommand line compressor : D:\Program Files (x86)\Exact Audio Copy\FLAC\FLAC.EXEAdditional command line options : -V -8 -T "artist=%a" -T "title=%t" -T "album=%g" -T "date=%y" -T "tracknumber=%n" -T "genre=%m" %s

TOC of the extracted CD

Track | Start | Length | Start sector | End sector --------------------------------------------------------- 1 | 0:00.32 | 4:37.08 | 32 | 20814 2 | 4:37.40 | 6:10.70 | 20815 | 48634 3 | 10:48.35 | 4:26.00 | 48635 | 68584 4 | 15:14.35 | 4:21.35 | 68585 | 88194 5 | 19:35.70 | 11:00.00 | 88195 | 137694 6 | 30:35.70 | 4:45.52 | 137695 | 159121 7 | 35:21.47 | 4:46.73 | 159122 | 180644

Track 1

Filename D:\Users\Alan\Downloads\Rush - Moving Pictures\Rush - Moving Pictures (Canada ANMD-1030)\01 Tom Sawyer.wav

Pre-gap length 0:00:02.42

Peak level 95.7 % Track quality 100.0 % Test CRC 0D56243F Copy CRC 0D56243F Accurately ripped (confidence 2) [F1235630] Copy OK

Track 2

Filename D:\Users\Alan\Downloads\Rush - Moving Pictures\Rush - Moving Pictures (Canada ANMD-1030)\02 Red Barchetta.wav

Pre-gap length 0:00:03.37

Peak level 89.0 % Track quality 100.0 % Test CRC 5D23A5E1 Copy CRC 5D23A5E1 Accurately ripped (confidence 2) [4410C39E] Copy OK

Track 3

Filename D:\Users\Alan\Downloads\Rush - Moving Pictures\Rush - Moving Pictures (Canada ANMD-1030)\03 YYZ.wav

Pre-gap length 0:00:00.89

Peak level 94.8 % Track quality 100.0 % Test CRC 926B17E6 Copy CRC 926B17E6 Accurately ripped (confidence 2) [9B06015C] Copy OK

Track 4

Filename D:\Users\Alan\Downloads\Rush - Moving Pictures\Rush - Moving Pictures (Canada ANMD-1030)\04 Limelight.wav

Pre-gap length 0:00:00.64

Peak level 82.1 % Track quality 100.0 % Test CRC B7B87F39 Copy CRC B7B87F39 Accurately ripped (confidence 2) [C3798A89] Copy OK

Track 5

Filename D:\Users\Alan\Downloads\Rush - Moving Pictures\Rush - Moving Pictures (Canada ANMD-1030)\05 The Camera Eye.wav

Pre-gap length 0:00:01.04

Peak level 99.5 % Track quality 100.0 % Test CRC 1C38B41C Copy CRC 1C38B41C Accurately ripped (confidence 2) [640E8AA7] Copy OK

Track 6

Filename D:\Users\Alan\Downloads\Rush - Moving Pictures\Rush - Moving Pictures (Canada ANMD-1030)\06 Witch Hunt.wav

Pre-gap length 0:00:00.89

Peak level 91.5 % Track quality 100.0 % Test CRC 099BD3E5 Copy CRC 099BD3E5 Accurately ripped (confidence 2) [5234F8D1] Copy OK

Track 7

Filename D:\Users\Alan\Downloads\Rush - Moving Pictures\Rush - Moving Pictures (Canada ANMD-1030)\07 Vital Signs.wav

Pre-gap length 0:00:01.62

Peak level 75.6 % Track quality 100.0 % Test CRC A2FA3039 Copy CRC A2FA3039 Accurately ripped (confidence 2) [3DFC2D2C] Copy OK

All tracks accurately ripped

No errors occurred

End of status report
REM GENRE "Progressive Rock"REM DATE 1981REM DISCID 5A096807REM COMMENT "ExactAudioCopy v0.99pb5"FILE "01 Tom Sawyer.wav" WAVE TRACK 01 AUDIO PREGAP 00:00:32 INDEX 01 00:00:00 TRACK 02 AUDIO INDEX 00 04:33:55FILE "02 Red Barchetta.wav" WAVE INDEX 01 00:00:00 TRACK 03 AUDIO INDEX 00 06:10:03FILE "03 YYZ.wav" WAVE INDEX 01 00:00:00 TRACK 04 AUDIO INDEX 00 04:25:27FILE "04 Limelight.wav" WAVE INDEX 01 00:00:00 TRACK 05 AUDIO INDEX 00 04:20:32FILE "05 The Camera Eye.wav" WAVE INDEX 01 00:00:00 TRACK 06 AUDIO INDEX 00 10:59:08FILE "06 Witch Hunt.wav" WAVE INDEX 01 00:00:00 TRACK 07 AUDIO INDEX 00 04:44:05FILE "07 Vital Signs.wav" WAVE INDEX 01 00:00:00
[CUETools log; Date: 01.12.2012 23:09:58; Version: 2.1.4]Pregap length 00:00:32.[CTDB TOCID: 6AD9QaVtQt7lcJ2dKX0WWUbWXNE-] found.Track | CTDB Status 1 | (1/1) Accurately ripped 2 | (1/1) Accurately ripped 3 | (1/1) Accurately ripped 4 | (1/1) Accurately ripped 5 | (1/1) Accurately ripped 6 | (1/1) Accurately ripped 7 | (1/1) Accurately ripped[AccurateRip ID: 000abcec-00416e42-5a096807] found.Track [ CRC | V2 ] Status 01 [f1235630|06527a98] (02+02/14) Accurately ripped 02 [4410c39e|9d41e05d] (02+02/14) Accurately ripped 03 [9b06015c|aa3a2216] (02+02/14) Accurately ripped 04 [c3798a89|8d169eb3] (02+02/14) Accurately ripped 05 [640e8aa7|d58cb36c] (02+02/13) Accurately ripped 06 [5234f8d1|71aaf799] (02+02/13) Accurately ripped 07 [3dfc2d2c|534ba418] (02+02/13) Accurately rippedOffsetted by -28: 01 [4a1f4c98] (05/14) Accurately ripped 02 [03ccc39e] (05/14) Accurately ripped 03 [69d8133a] (05/14) Accurately ripped 04 [ccf30ac3] (05/14) Accurately ripped 05 [2f321e13] (04/13) Accurately ripped 06 [88cf0847] (04/13) Accurately ripped 07 [811716f1] (04/13) Accurately rippedOffsetted by 871: 01 [3360ee56] (05/14) Accurately ripped 02 [77c1c39e] (05/14) Accurately ripped 03 [84f74dee] (05/14) Accurately ripped 04 [e996df91] (05/14) Accurately ripped 05 [598e29ec] (05/13) Accurately ripped 06 [b479b00a] (05/13) Accurately ripped 07 [8a62d4a5] (05/13) Accurately ripped

Track Peak [ CRC32 ] [W/O NULL] [ LOG ] -- 99,5 [6415B76D] [5D7FF8B5] 01 95,7 [0D56243F] [828177B7] CRC32 02 89,0 [5D23A5E1] [56C1EE7C] CRC32 03 94,8 [926B17E6] [6C6EBD71] CRC32 04 82,1 [B7B87F39] [2A9EA01E] CRC32 05 99,5 [1C38B41C] [FB26C155] CRC32 06 91,5 [099BD3E5] [4CABE5E8] CRC32 07 75,6 [A2FA3039] [43A6EF8D] CRC32
Продолжительность: 40:16

Трэклист:
1. Tom Sawyer (4:34)
2. Red Barchetta (6:08)
3. YYZ (4:24)
4. Limelight (4:21)
5. The Camera Eye (10:57)
6. Witch Hunt (Part III of Fear) (4:44)
7. Vital Signs (4:47)
Exact Audio Copy V0.99 prebeta 5 from 4. May 2009

EAC extraction logfile from 19. May 2012, 12:45

Rush / Moving Pictures

Used drive : HL-DT-STDVD+-RW GSA-H73N Adapter: 1 ID: 0

Read mode : SecureUtilize accurate stream : YesDefeat audio cache : YesMake use of C2 pointers : No

Read offset correction : 102Overread into Lead-In and Lead-Out : NoFill up missing offset samples with silence : YesDelete leading and trailing silent blocks : NoNull samples used in CRC calculations : YesUsed interface : Native Win32 interface for Win NT & 2000Gap handling : Appended to previous track

Used output format : User Defined EncoderSelected bitrate : 768 kBit/sQuality : HighAdd ID3 tag : NoCommand line compressor : D:\Program Files (x86)\Exact Audio Copy\FLAC\FLAC.EXEAdditional command line options : -V -8 -T "artist=%a" -T "title=%t" -T "album=%g" -T "date=%y" -T "tracknumber=%n" -T "genre=%m" %s

TOC of the extracted CD

Track | Start | Length | Start sector | End sector --------------------------------------------------------- 1 | 0:00.00 | 4:36.62 | 0 | 20761 2 | 4:36.62 | 6:13.25 | 20762 | 48761 3 | 10:50.12 | 4:26.68 | 48762 | 68779 4 | 15:17.05 | 4:22.20 | 68780 | 88449 5 | 19:39.25 | 11:02.27 | 88450 | 138126 6 | 30:41.52 | 4:46.45 | 138127 | 159621 7 | 35:28.22 | 4:48.53 | 159622 | 181274

Track 1

Filename D:\Users\Alan\Downloads\Rush - Moving Pictures (Japan 258P-5076)\01 Tom Sawyer.wav

Pre-gap length 0:00:02.00

Peak level 100.0 % Track quality 99.9 % Test CRC 125D4D99 Copy CRC 125D4D99 Accurately ripped (confidence 2) [F23719E3] Copy OK

Track 2

Filename D:\Users\Alan\Downloads\Rush - Moving Pictures (Japan 258P-5076)\02 Red Barchetta.wav

Pre-gap length 0:00:01.00

Peak level 100.0 % Track quality 100.0 % Test CRC 423E773C Copy CRC 423E773C Accurately ripped (confidence 2) [D0D77BA8] Copy OK

Track 3

Filename D:\Users\Alan\Downloads\Rush - Moving Pictures (Japan 258P-5076)\03 YYZ.wav

Pre-gap length 0:00:01.80

Peak level 100.0 % Track quality 100.0 % Test CRC 7EB747F4 Copy CRC 7EB747F4 Accurately ripped (confidence 2) [4042B56B] Copy OK

Track 4

Filename D:\Users\Alan\Downloads\Rush - Moving Pictures (Japan 258P-5076)\04 Limelight.wav

Pre-gap length 0:00:01.06

Peak level 100.0 % Track quality 100.0 % Test CRC 12EEC8EA Copy CRC 12EEC8EA Accurately ripped (confidence 2) [535C8B0F] Copy OK

Track 5

Filename D:\Users\Alan\Downloads\Rush - Moving Pictures (Japan 258P-5076)\05 The Camera Eye.wav

Pre-gap length 0:00:01.50

Peak level 100.0 % Track quality 100.0 % Test CRC 501B066F Copy CRC 501B066F Accurately ripped (confidence 2) [559F4C96] Copy OK

Track 6

Filename D:\Users\Alan\Downloads\Rush - Moving Pictures (Japan 258P-5076)\06 Witch Hunt.wav

Pre-gap length 0:00:01.16

Peak level 100.0 % Track quality 100.0 % Test CRC 34C7ACE9 Copy CRC 34C7ACE9 Accurately ripped (confidence 2) [F15ADC36] Copy OK

Track 7

Filename D:\Users\Alan\Downloads\Rush - Moving Pictures (Japan 258P-5076)\07 07 - Vital Signs.wav

Pre-gap length 0:00:00.80

Peak level 100.0 % Track quality 100.0 % Test CRC 0EB0FA4D Copy CRC 0EB0FA4D Accurately ripped (confidence 2) [740E89C4] Copy OK

All tracks accurately ripped

No errors occurred

End of status report
REM GENRE "Heavy Metal"REM DATE 1981REM DISCID 54097107REM COMMENT "ExactAudioCopy v0.99pb5"FILE "01 Tom Sawyer.wav" WAVE TRACK 01 AUDIO INDEX 01 00:00:00 TRACK 02 AUDIO INDEX 00 04:35:62FILE "02 Red Barchetta.wav" WAVE INDEX 01 00:00:00 TRACK 03 AUDIO INDEX 00 06:11:40FILE "03 YYZ.wav" WAVE INDEX 01 00:00:00 TRACK 04 AUDIO INDEX 00 04:25:63FILE "04 Limelight.wav" WAVE INDEX 01 00:00:00 TRACK 05 AUDIO INDEX 00 04:20:57FILE "05 The Camera Eye.wav" WAVE INDEX 01 00:00:00 TRACK 06 AUDIO INDEX 00 11:01:15FILE "06 Witch Hunt.wav" WAVE INDEX 01 00:00:00 TRACK 07 AUDIO INDEX 00 04:45:60FILE "07 07 - Vital Signs.wav" WAVE INDEX 01 00:00:00
[CUETools log; Date: 01.12.2012 23:14:19; Version: 2.1.4][CTDB TOCID: 09w2SOiloYQiZWM9izqrhLhfejY-] found.Track | CTDB Status 1 | (1/1) Accurately ripped 2 | (1/1) Accurately ripped 3 | (1/1) Accurately ripped 4 | (1/1) Accurately ripped 5 | (1/1) Accurately ripped 6 | (1/1) Accurately ripped 7 | (1/1) Accurately ripped[AccurateRip ID: 000ac4f2-0041a2b9-54097107] found.Track [ CRC | V2 ] Status 01 [f23719e3|61b0e213] (2+0/2) Accurately ripped 02 [d0d77ba8|e4be53e8] (2+0/2) Accurately ripped 03 [4042b56b|a392f452] (2+0/2) Accurately ripped 04 [535c8b0f|55fa38f3] (2+0/2) Accurately ripped 05 [559f4c96|b7d5f664] (2+0/2) Accurately ripped 06 [f15adc36|5bde7678] (2+0/2) Accurately ripped 07 [740e89c4|46f9abac] (2+0/2) Accurately ripped

Track Peak [ CRC32 ] [W/O NULL] [ LOG ] -- 100,0 [113371E3] [9C00C0E2] 01 100,0 [125D4D99] [2337B5E0] CRC32 02 100,0 [423E773C] [71CF6C7A] CRC32 03 100,0 [7EB747F4] [5913E6CC] CRC32 04 100,0 [12EEC8EA] [A76581A4] CRC32 05 100,0 [501B066F] [7E0CC7C1] CRC32 06 100,0 [34C7ACE9] [50EA6D26] CRC32 07 100,0 [0EB0FA4D] [D89691C4] CRC32
Продолжительность: 42:52

Трэклист:
1. Subdivisions (5:32)
2. The Analog Kid (4:46)
3. Chemistry (4:56)
4. Digital Man (6:20)
5. The Weapon (Part II of Fear) (6:22)
6. New World Man (3:41)
7. Losing It (4:51)
8. Countdown (5:49)
Exact Audio Copy V0.99 prebeta 5 from 4. May 2009

EAC extraction logfile from 1. June 2012, 16:13

Rush / Signals

Used drive : HL-DT-STDVD+-RW GSA-H73N Adapter: 1 ID: 0

Read mode : SecureUtilize accurate stream : YesDefeat audio cache : YesMake use of C2 pointers : No

Read offset correction : 102Overread into Lead-In and Lead-Out : NoFill up missing offset samples with silence : YesDelete leading and trailing silent blocks : NoNull samples used in CRC calculations : YesUsed interface : Native Win32 interface for Win NT & 2000Gap handling : Appended to previous track

Used output format : User Defined EncoderSelected bitrate : 768 kBit/sQuality : HighAdd ID3 tag : NoCommand line compressor : D:\Program Files (x86)\Exact Audio Copy\FLAC\FLAC.EXEAdditional command line options : -V -8 -T "artist=%a" -T "title=%t" -T "album=%g" -T "date=%y" -T "tracknumber=%n" -T "genre=%m" %s

TOC of the extracted CD

Track | Start | Length | Start sector | End sector --------------------------------------------------------- 1 | 0:01.00 | 5:37.43 | 75 | 25392 2 | 5:38.43 | 4:49.22 | 25393 | 47089 3 | 10:27.65 | 4:58.48 | 47090 | 69487 4 | 15:26.38 | 6:24.05 | 69488 | 98292 5 | 21:50.43 | 6:29.07 | 98293 | 127474 6 | 28:19.50 | 3:48.18 | 127475 | 144592 7 | 32:07.68 | 4:56.02 | 144593 | 166794 8 | 37:03.70 | 5:49.50 | 166795 | 193019

Track 1

Filename D:\Users\Alan\Downloads\Rush - Signals\Rush - Signals (Anthem ANC-1-1038)\01 Subdivisions.wav

Pre-gap length 0:00:03.00

Peak level 94.3 % Track quality 100.0 % Test CRC CF32F27E Copy CRC CF32F27E Accurately ripped (confidence 4) [9DD00DCF] Copy OK

Track 2

Filename D:\Users\Alan\Downloads\Rush - Signals\Rush - Signals (Anthem ANC-1-1038)\02 The Analog Kid.wav

Pre-gap length 0:00:04.46

Peak level 82.2 % Track quality 100.0 % Test CRC 6B190916 Copy CRC 6B190916 Accurately ripped (confidence 4) [20722A83] Copy OK

Track 3

Filename D:\Users\Alan\Downloads\Rush - Signals\Rush - Signals (Anthem ANC-1-1038)\03 Chemistry.wav

Pre-gap length 0:00:02.02

Peak level 71.7 % Track quality 100.0 % Test CRC F1E24031 Copy CRC F1E24031 Accurately ripped (confidence 4) [FBC54AFC] Copy OK

Track 4

Filename D:\Users\Alan\Downloads\Rush - Signals\Rush - Signals (Anthem ANC-1-1038)\04 Digital Man.wav

Pre-gap length 0:00:02.30

Peak level 89.4 % Track quality 100.0 % Test CRC 28620F8A Copy CRC 28620F8A Accurately ripped (confidence 4) [3A8D727D] Copy OK

Track 5

Filename D:\Users\Alan\Downloads\Rush - Signals\Rush - Signals (Anthem ANC-1-1038)\05 The Weapon.wav

Pre-gap length 0:00:01.33

Peak level 91.6 % Track quality 100.0 % Test CRC 6C202BD0 Copy CRC 6C202BD0 Accurately ripped (confidence 4) [54820794] Copy OK

Track 6

Filename D:\Users\Alan\Downloads\Rush - Signals\Rush - Signals (Anthem ANC-1-1038)\06 New World Man.wav

Pre-gap length 0:00:03.80

Peak level 75.3 % Track quality 100.0 % Test CRC 8007ED07 Copy CRC 8007ED07 Accurately ripped (confidence 4) [42F4A7D6] Copy OK

Track 7

Filename D:\Users\Alan\Downloads\Rush - Signals\Rush - Signals (Anthem ANC-1-1038)\07 Losing It.wav

Pre-gap length 0:00:04.70

Peak level 87.2 % Track quality 100.0 % Test CRC 4A69DE56 Copy CRC 4A69DE56 Accurately ripped (confidence 4) [5B4F3111] Copy OK

Track 8

Filename D:\Users\Alan\Downloads\Rush - Signals\Rush - Signals (Anthem ANC-1-1038)\08 Countdown.wav

Pre-gap length 0:00:02.62

Peak level 89.8 % Track quality 99.9 % Test CRC 79C1FB15 Copy CRC 79C1FB15 Accurately ripped (confidence 4) [776B88B5] Copy OK

All tracks accurately ripped

No errors occurred

End of status report
REM GENRE RockREM DATE 1982REM DISCID 5E0A0C08REM COMMENT "ExactAudioCopy v0.99pb5"FILE "01 Subdivisions.wav" WAVE TRACK 01 AUDIO PREGAP 00:01:00 INDEX 01 00:00:00 TRACK 02 AUDIO INDEX 00 05:33:08FILE "02 The Analog Kid.wav" WAVE INDEX 01 00:00:00 TRACK 03 AUDIO INDEX 00 04:47:20FILE "03 Chemistry.wav" WAVE INDEX 01 00:00:00 TRACK 04 AUDIO INDEX 00 04:56:25FILE "04 Digital Man.wav" WAVE INDEX 01 00:00:00 TRACK 05 AUDIO INDEX 00 06:22:55FILE "05 The Weapon.wav" WAVE INDEX 01 00:00:00 TRACK 06 AUDIO INDEX 00 06:25:22FILE "06 New World Man.wav" WAVE INDEX 01 00:00:00 TRACK 07 AUDIO INDEX 00 03:43:40FILE "07 Losing It.wav" WAVE INDEX 01 00:00:00 TRACK 08 AUDIO INDEX 00 04:53:30FILE "08 Countdown.wav" WAVE INDEX 01 00:00:00
[CUETools log; Date: 01.12.2012 23:20:26; Version: 2.1.4]Pregap length 00:01:00.[CTDB TOCID: S6Udbu.25mTUVsOzqBFEhiKNzbA-] found.Track | CTDB Status 1 | (1/1) Accurately ripped 2 | (1/1) Accurately ripped 3 | (1/1) Accurately ripped 4 | (1/1) Accurately ripped 5 | (1/1) Accurately ripped 6 | (1/1) Accurately ripped 7 | (1/1) Accurately ripped 8 | (1/1) Accurately ripped[AccurateRip ID: 000d4f1e-0058a7a9-5e0a0c08] found.Track [ CRC | V2 ] Status 01 [9dd00dcf|2cf5dcf7] (4+0/4) Accurately ripped 02 [20722a83|ee90cb4e] (4+0/4) Accurately ripped 03 [fbc54afc|a0d9791d] (4+0/4) Accurately ripped 04 [3a8d727d|f522b4ee] (4+0/4) Accurately ripped 05 [54820794|4b63f021] (4+0/4) Accurately ripped 06 [42f4a7d6|74cc32a5] (4+0/4) Accurately ripped 07 [5b4f3111|20df8098] (4+0/4) Accurately ripped 08 [776b88b5|8cc00459] (4+0/4) Accurately ripped

Track Peak [ CRC32 ] [W/O NULL] [ LOG ] -- 94,3 [5013E861] [FCCADA0D] 01 94,3 [CF32F27E] [C87DA793] CRC32 02 82,2 [6B190916] [F72A788E] CRC32 03 71,7 [F1E24031] [60079247] CRC32 04 89,4 [28620F8A] [C4B317E6] CRC32 05 91,6 [6C202BD0] [53F9A0CF] CRC32 06 75,3 [8007ED07] [437B666B] CRC32 07 87,2 [4A69DE56] [4369DE4F] CRC32 08 89,8 [79C1FB15] [9F1661D3] CRC32
Продолжительность: 42:52

Трэклист:
1. Subdivisions (5:32)
2. The Analog Kid (4:46)
3. Chemistry (4:56)
4. Digital Man (6:20)
5. The Weapon (Part II of Fear) (6:22)
6. New World Man (3:41)
7. Losing It (4:51)
8. Countdown (5:49)
Exact Audio Copy V0.99 prebeta 5 from 4. May 2009

EAC extraction logfile from 19. May 2012, 21:23

Rush / Signals

Used drive : HL-DT-STDVD+-RW GSA-H73N Adapter: 1 ID: 0

Read mode : SecureUtilize accurate stream : YesDefeat audio cache : YesMake use of C2 pointers : No

Read offset correction : 102Overread into Lead-In and Lead-Out : NoFill up missing offset samples with silence : YesDelete leading and trailing silent blocks : NoNull samples used in CRC calculations : YesUsed interface : Native Win32 interface for Win NT & 2000Gap handling : Appended to previous track

Used output format : User Defined EncoderSelected bitrate : 768 kBit/sQuality : HighAdd ID3 tag : NoCommand line compressor : D:\Program Files (x86)\Exact Audio Copy\FLAC\FLAC.EXEAdditional command line options : -V -8 -T "artist=%a" -T "title=%t" -T "album=%g" -T "date=%y" -T "tracknumber=%n" -T "genre=%m" %s

TOC of the extracted CD

Track | Start | Length | Start sector | End sector --------------------------------------------------------- 1 | 0:00.00 | 5:37.67 | 0 | 25341 2 | 5:37.67 | 4:49.35 | 25342 | 47051 3 | 10:27.27 | 4:58.65 | 47052 | 69466 4 | 15:26.17 | 6:26.58 | 69467 | 98474 5 | 21:53.00 | 6:30.67 | 98475 | 127791 6 | 28:23.67 | 3:48.28 | 127792 | 144919 7 | 32:12.20 | 4:54.47 | 144920 | 167016 8 | 37:06.67 | 5:53.65 | 167017 | 193556

Track 1

Filename D:\Users\Alan\Downloads\Rush - Signals (Japan 258P-5169)\01 Subdivisions.wav

Pre-gap length 0:00:02.00

Peak level 100.0 % Track quality 100.0 % Test CRC 3A081968 Copy CRC 3A081968 Accurately ripped (confidence 4) [42AE053B] Copy OK

Track 2

Filename D:\Users\Alan\Downloads\Rush - Signals (Japan 258P-5169)\02 The Analog Kid.wav

Pre-gap length 0:00:01.56

Peak level 91.7 % Track quality 100.0 % Test CRC FF84D21F Copy CRC FF84D21F Accurately ripped (confidence 4) [2A875621] Copy OK

Track 3

Filename D:\Users\Alan\Downloads\Rush - Signals (Japan 258P-5169)\03 Chemistry.wav

Peak level 85.9 % Track quality 99.9 % Test CRC 6B4B3DB4 Copy CRC 6B4B3DB4 Accurately ripped (confidence 4) [861F36A8] Copy OK

Track 4

Filename D:\Users\Alan\Downloads\Rush - Signals (Japan 258P-5169)\04 Digital Man.wav

Pre-gap length 0:00:00.62

Peak level 91.6 % Track quality 100.0 % Test CRC AA0CF57D Copy CRC AA0CF57D Accurately ripped (confidence 4) [03510029] Copy OK

Track 5

Filename D:\Users\Alan\Downloads\Rush - Signals (Japan 258P-5169)\05 The Weapon.wav

Pre-gap length 0:00:01.17

Peak level 97.7 % Track quality 100.0 % Test CRC A302DA4C Copy CRC A302DA4C Accurately ripped (confidence 4) [292EEC2A] Copy OK

Track 6

Filename D:\Users\Alan\Downloads\Rush - Signals (Japan 258P-5169)\06 New World Man.wav

Pre-gap length 0:00:02.00

Peak level 90.1 % Track quality 100.0 % Test CRC 92962DA8 Copy CRC 92962DA8 Accurately ripped (confidence 4) [40A72404] Copy OK

Track 7

Filename D:\Users\Alan\Downloads\Rush - Signals (Japan 258P-5169)\07 Losing It.wav

Pre-gap length 0:00:02.77

Peak level 98.7 % Track quality 100.0 % Test CRC 4430F615 Copy CRC 4430F615 Accurately ripped (confidence 4) [E110459C] Copy OK

Track 8

Filename D:\Users\Alan\Downloads\Rush - Signals (Japan 258P-5169)\08 Countdown.wav

Peak level 94.9 % Track quality 100.0 % Test CRC 1A8C7CEC Copy CRC 1A8C7CEC Accurately ripped (confidence 4) [77B8C67D] Copy OK

All tracks accurately ripped

No errors occurred

End of status report
REM GENRE RockREM DATE 1982REM DISCID 6B0A1408REM COMMENT "ExactAudioCopy v0.99pb5"FILE "01 Subdivisions.wav" WAVE TRACK 01 AUDIO INDEX 01 00:00:00 TRACK 02 AUDIO INDEX 00 05:36:25FILE "02 The Analog Kid.wav" WAVE INDEX 01 00:00:00FILE "03 Chemistry.wav" WAVE TRACK 03 AUDIO INDEX 01 00:00:00 TRACK 04 AUDIO INDEX 00 04:58:18FILE "04 Digital Man.wav" WAVE INDEX 01 00:00:00 TRACK 05 AUDIO INDEX 00 06:25:45FILE "05 The Weapon.wav" WAVE INDEX 01 00:00:00 TRACK 06 AUDIO INDEX 00 06:28:67FILE "06 New World Man.wav" WAVE INDEX 01 00:00:00 TRACK 07 AUDIO INDEX 00 03:45:45FILE "07 Losing It.wav" WAVE INDEX 01 00:00:00FILE "08 Countdown.wav" WAVE TRACK 08 AUDIO INDEX 01 00:00:00
[CUETools log; Date: 01.12.2012 23:22:50; Version: 2.1.4][CTDB TOCID: j.0SmjC3SyPe1T3GBjFZ1t25sQI-] found.Track | CTDB Status 1 | (1/1) Accurately ripped 2 | (1/1) Accurately ripped 3 | (1/1) Accurately ripped 4 | (1/1) Accurately ripped 5 | (1/1) Accurately ripped 6 | (1/1) Accurately ripped 7 | (1/1) Accurately ripped 8 | (1/1) Accurately ripped[AccurateRip ID: 000d5496-0058d3f1-6b0a1408] found.Track [ CRC | V2 ] Status 01 [42ae053b|baf0b465] (4+0/4) Accurately ripped 02 [2a875621|46e8e376] (4+0/4) Accurately ripped 03 [861f36a8|8afdc7c4] (4+0/4) Accurately ripped 04 [03510029|3a87ecf6] (4+0/4) Accurately ripped 05 [292eec2a|4f5ad969] (4+0/4) Accurately ripped 06 [40a72404|9b1c62ce] (4+0/4) Accurately ripped 07 [e110459c|b02c9d5e] (4+0/4) Accurately ripped 08 [77b8c67d|70f0fa2b] (4+0/4) Accurately ripped

Track Peak [ CRC32 ] [W/O NULL] [ LOG ] -- 100,0 [E5120AE8] [D2D70CD1] 01 100,0 [3A081968] [421E427E] CRC32 02 91,7 [FF84D21F] [78E1ABC1] CRC32 03 85,9 [6B4B3DB4] [46FE5CED] CRC32 04 91,6 [AA0CF57D] [980DFAA8] CRC32 05 97,7 [A302DA4C] [EAB654A8] CRC32 06 90,1 [92962DA8] [AEB204D4] CRC32 07 98,7 [4430F615] [E823EEF7] CRC32 08 94,9 [1A8C7CEC] [CBEEAF3F] CRC32
Продолжительность: 39:37

Трэклист:
1. Distant Early Warning (4:56)
2. Afterimage (5:03)
3. Red Sector A (5:09)
4. The Enemy Within (Part I of Fear) (4:34)
5. The Body Electric (4:59)
6. Kid Gloves (4:17)
7. Red Lenses (4:41)
8. Between The Wheels (5:44)
Exact Audio Copy V0.99 prebeta 5 from 4. May 2009

EAC extraction logfile from 12. June 2012, 13:37

Rush / Grace Under Pressure

Used drive : HL-DT-STDVD+-RW GSA-H73N Adapter: 1 ID: 0

Read mode : SecureUtilize accurate stream : YesDefeat audio cache : YesMake use of C2 pointers : No

Read offset correction : 102Overread into Lead-In and Lead-Out : NoFill up missing offset samples with silence : YesDelete leading and trailing silent blocks : NoNull samples used in CRC calculations : YesUsed interface : Native Win32 interface for Win NT & 2000Gap handling : Appended to previous track

Used output format : User Defined EncoderSelected bitrate : 768 kBit/sQuality : HighAdd ID3 tag : NoCommand line compressor : D:\Program Files (x86)\Exact Audio Copy\FLAC\FLAC.EXEAdditional command line options : -V -8 -T "artist=%a" -T "title=%t" -T "album=%g" -T "date=%y" -T "tracknumber=%n" -T "genre=%m" %s

TOC of the extracted CD

Track | Start | Length | Start sector | End sector --------------------------------------------------------- 1 | 0:01.00 | 4:57.52 | 75 | 22401 2 | 4:58.52 | 5:05.20 | 22402 | 45296 3 | 10:03.72 | 5:11.33 | 45297 | 68654 4 | 15:15.30 | 4:35.72 | 68655 | 89351 5 | 19:51.27 | 5:00.53 | 89352 | 111904 6 | 24:52.05 | 4:20.35 | 111905 | 131439 7 | 29:12.40 | 4:43.60 | 131440 | 152724 8 | 33:56.25 | 5:41.65 | 152725 | 178364

Track 1

Filename D:\Users\Alan\Downloads\Rush - Grace Under Pressure\Rush - Grace Under Pressure (Anthem VANK-1045)\01 Distant Early Warning.wav

Pre-gap length 0:00:03.00

Peak level 71.4 % Track quality 100.0 % Test CRC 936507D7 Copy CRC 936507D7 Accurately ripped (confidence 8) [576EA5D0] Copy OK

Track 2

Filename D:\Users\Alan\Downloads\Rush - Grace Under Pressure\Rush - Grace Under Pressure (Anthem VANK-1045)\02 Afterimage.wav

Pre-gap length 0:00:01.26

Peak level 78.1 % Track quality 100.0 % Test CRC A840C13F Copy CRC A840C13F Accurately ripped (confidence 8) [434BDE96] Copy OK

Track 3

Filename D:\Users\Alan\Downloads\Rush - Grace Under Pressure\Rush - Grace Under Pressure (Anthem VANK-1045)\03 Red Sector A.wav

Pre-gap length 0:00:01.60

Peak level 86.6 % Track quality 100.0 % Test CRC 6F8AD4E1 Copy CRC 6F8AD4E1 Accurately ripped (confidence 8) [2A04952F] Copy OK

Track 4

Filename D:\Users\Alan\Downloads\Rush - Grace Under Pressure\Rush - Grace Under Pressure (Anthem VANK-1045)\04 The Enemby Within.wav

Pre-gap length 0:00:01.84

Peak level 83.2 % Track quality 99.9 % Test CRC FA852927 Copy CRC FA852927 Accurately ripped (confidence 8) [D7BCE131] Copy OK

Track 5

Filename D:\Users\Alan\Downloads\Rush - Grace Under Pressure\Rush - Grace Under Pressure (Anthem VANK-1045)\05 The Body Electric.wav

Pre-gap length 0:00:01.06

Peak level 76.7 % Track quality 100.0 % Test CRC FB13EEC6 Copy CRC FB13EEC6 Accurately ripped (confidence 8) [D6F34DA5] Copy OK

Track 6

Filename D:\Users\Alan\Downloads\Rush - Grace Under Pressure\Rush - Grace Under Pressure (Anthem VANK-1045)\06 Kid Gloves.wav

Pre-gap length 0:00:01.97

Peak level 71.2 % Track quality 100.0 % Test CRC F50BD1D3 Copy CRC F50BD1D3 Accurately ripped (confidence 8) [8D24B2EF] Copy OK

Track 7

Filename D:\Users\Alan\Downloads\Rush - Grace Under Pressure\Rush - Grace Under Pressure (Anthem VANK-1045)\07 Red Lenses.wav

Pre-gap length 0:00:02.70

Peak level 84.0 % Track quality 100.0 % Test CRC 4098A8CD Copy CRC 4098A8CD Accurately ripped (confidence 8) [EAFF9155] Copy OK

Track 8

Filename D:\Users\Alan\Downloads\Rush - Grace Under Pressure\Rush - Grace Under Pressure (Anthem VANK-1045)\08 Between the Wheels.wav

Pre-gap length 0:00:01.20

Peak level 82.4 % Track quality 100.0 % Test CRC 558142DE Copy CRC 558142DE Accurately ripped (confidence 8) [749C5C4E] Copy OK

All tracks accurately ripped

No errors occurred

End of status report
REM GENRE "Progressive Rock"REM DATE 1984REM DISCID 60094908REM COMMENT "ExactAudioCopy v0.99pb5"FILE "01 Distant Early Warning.wav" WAVE TRACK 01 AUDIO PREGAP 00:01:00 INDEX 01 00:00:00 TRACK 02 AUDIO INDEX 00 04:56:32FILE "02 Afterimage.wav" WAVE INDEX 01 00:00:00 TRACK 03 AUDIO INDEX 00 05:03:50FILE "03 Red Sector A.wav" WAVE INDEX 01 00:00:00 TRACK 04 AUDIO INDEX 00 05:09:45FILE "04 The Enemby Within.wav" WAVE INDEX 01 00:00:00 TRACK 05 AUDIO INDEX 00 04:34:67FILE "05 The Body Electric.wav" WAVE INDEX 01 00:00:00 TRACK 06 AUDIO INDEX 00 04:58:55FILE "06 Kid Gloves.wav" WAVE INDEX 01 00:00:00 TRACK 07 AUDIO INDEX 00 04:17:57FILE "07 Red Lenses.wav" WAVE INDEX 01 00:00:00 TRACK 08 AUDIO INDEX 00 04:42:45FILE "08 Between the Wheels.wav" WAVE INDEX 01 00:00:00
[CUETools log; Date: 01.12.2012 23:34:37; Version: 2.1.4]Pregap length 00:01:00.[CTDB TOCID: .3Vh7_BZGzAaX.nFl_ySq0_zeHg-] found.Track | CTDB Status 1 | (1/1) Accurately ripped 2 | (1/1) Accurately ripped 3 | (1/1) Accurately ripped 4 | (1/1) Accurately ripped 5 | (1/1) Accurately ripped 6 | (1/1) Accurately ripped 7 | (1/1) Accurately ripped 8 | (1/1) Accurately ripped[AccurateRip ID: 000c35d8-00513029-60094908] found.Track [ CRC | V2 ] Status 01 [576ea5d0|8c138c44] (08+00/14) Accurately ripped 02 [434bde96|2e731547] (08+00/14) Accurately ripped 03 [2a04952f|6c6ace54] (08+00/14) Accurately ripped 04 [d7bce131|f1373b41] (08+00/14) Accurately ripped 05 [d6f34da5|c8549b1f] (08+00/14) Accurately ripped 06 [8d24b2ef|bba54b51] (08+00/14) Accurately ripped 07 [eaff9155|98625b85] (08+00/14) Accurately ripped 08 [749c5c4e|ee8a9caf] (08+00/14) Accurately rippedOffsetted by -871: 01 [6e72865a] (02/14) Accurately ripped 02 [b3d63e65] (02/14) Accurately ripped 03 [e6ea9bf8] (02/14) Accurately ripped 04 [9bf30d19] (02/14) Accurately ripped 05 [f2dbf6ef] (02/14) Accurately ripped 06 [bd1bb261] (02/14) Accurately ripped 07 [200bb765] (02/14) Accurately ripped 08 [a919125c] (02/14) Accurately rippedOffsetted by -899: 01 [cf00e782] (04/14) Accurately ripped 02 [ceac8c21] (04/14) Accurately ripped 03 [3d858c9c] (04/14) Accurately ripped 04 [83fbd8b9] (04/14) Accurately ripped 05 [66f89b17] (04/14) Accurately ripped 06 [43cb2b29] (04/14) Accurately ripped 07 [2fdbe7a5] (04/14) Accurately ripped 08 [bce14214] (00/14) No match (V2 was not tested)

Track Peak [ CRC32 ] [W/O NULL] [ LOG ] -- 86,6 [F62FD56B] [44D665D1] 01 71,4 [936507D7] [1D330754] CRC32 02 78,1 [A840C13F] [E69E68A9] CRC32 03 86,6 [6F8AD4E1] [D887D405] CRC32 04 83,2 [FA852927] [DBC45A11] CRC32 05 76,7 [FB13EEC6] [09128BFE] CRC32 06 71,2 [F50BD1D3] [52D2C15C] CRC32 07 84,0 [4098A8CD] [1DCC13AF] CRC32 08 82,4 [558142DE] [5545357E] CRC32
Продолжительность: 39:45

Трэклист:
1. Distant Early Warning (4:56)
2. Afterimage (5:03)
3. Red Sector A (5:09)
4. The Enemy Within (Part I of Fear) (4:34)
5. The Body Electric (4:59)
6. Kid Gloves (4:17)
7. Red Lenses (4:41)
8. Between The Wheels (5:44)
Exact Audio Copy V0.99 prebeta 5 from 4. May 2009

EAC extraction logfile from 22. May 2012, 20:22

Rush / Grace Under Pressure

Used drive : HL-DT-STDVD+-RW GSA-H73N Adapter: 1 ID: 0

Read mode : SecureUtilize accurate stream : YesDefeat audio cache : YesMake use of C2 pointers : No

Read offset correction : 102Overread into Lead-In and Lead-Out : NoFill up missing offset samples with silence : YesDelete leading and trailing silent blocks : NoNull samples used in CRC calculations : YesUsed interface : Native Win32 interface for Win NT & 2000Gap handling : Appended to previous track

Used output format : User Defined EncoderSelected bitrate : 768 kBit/sQuality : HighAdd ID3 tag : NoCommand line compressor : D:\Program Files (x86)\Exact Audio Copy\FLAC\FLAC.EXEAdditional command line options : -V -8 -T "artist=%a" -T "title=%t" -T "album=%g" -T "date=%y" -T "tracknumber=%n" -T "genre=%m" %s

TOC of the extracted CD

Track | Start | Length | Start sector | End sector --------------------------------------------------------- 1 | 0:00.00 | 4:58.00 | 0 | 22349 2 | 4:58.00 | 5:05.12 | 22350 | 45236 3 | 10:03.12 | 5:11.63 | 45237 | 68624 4 | 15:15.00 | 4:37.67 | 68625 | 89466 5 | 19:52.67 | 5:01.08 | 89467 | 112049 6 | 24:54.00 | 4:20.00 | 112050 | 131549 7 | 29:14.00 | 4:44.50 | 131550 | 152899 8 | 33:58.50 | 5:46.47 | 152900 | 178896

Track 1

Filename D:\Users\Alan\Downloads\Rush - Grace Under Pressure (Japan 258P-5077)\01 Distant Early Warning.wav

Pre-gap length 0:00:02.00

Peak level 100.0 % Track quality 99.9 % Test CRC C73C202D Copy CRC C73C202D Accurately ripped (confidence 2) [1E2214F3] Copy OK

Track 2

Filename D:\Users\Alan\Downloads\Rush - Grace Under Pressure (Japan 258P-5077)\02 Afterimage.wav

Peak level 100.0 % Track quality 99.9 % Test CRC 67A309C7 Copy CRC 67A309C7 Accurately ripped (confidence 2) [8E26F681] Copy OK

Track 3

Filename D:\Users\Alan\Downloads\Rush - Grace Under Pressure (Japan 258P-5077)\03 Red Sector A.wav

Peak level 100.0 % Track quality 100.0 % Test CRC 3792DB63 Copy CRC 3792DB63 Accurately ripped (confidence 2) [1AEE6ABE] Copy OK

Track 4

Filename D:\Users\Alan\Downloads\Rush - Grace Under Pressure (Japan 258P-5077)\04 The Enemy Within.wav

Peak level 100.0 % Track quality 100.0 % Test CRC A00248F0 Copy CRC A00248F0 Accurately ripped (confidence 2) [F0082961] Copy OK

Track 5

Filename D:\Users\Alan\Downloads\Rush - Grace Under Pressure (Japan 258P-5077)\05 The Body Electric.wav

Pre-gap length 0:00:00.89

Peak level 100.0 % Track quality 100.0 % Test CRC 6A7BC69A Copy CRC 6A7BC69A Accurately ripped (confidence 2) [C4E20231] Copy OK

Track 6

Filename D:\Users\Alan\Downloads\Rush - Grace Under Pressure (Japan 258P-5077)\06 Kid Gloves.wav

Peak level 100.0 % Track quality 99.9 % Test CRC 0256F2C5 Copy CRC 0256F2C5 Accurately ripped (confidence 2) [5FF6E649] Copy OK

Track 7

Filename D:\Users\Alan\Downloads\Rush - Grace Under Pressure (Japan 258P-5077)\07 Red Lenses.wav

Peak level 100.0 % Track quality 100.0 % Test CRC 8C960496 Copy CRC 8C960496 Accurately ripped (confidence 2) [EF0D47A8] Copy OK

Track 8

Filename D:\Users\Alan\Downloads\Rush - Grace Under Pressure (Japan 258P-5077)\08 Between the Wheels.wav

Peak level 100.0 % Track quality 100.0 % Test CRC 000F4564 Copy CRC 000F4564 Accurately ripped (confidence 2) [E231411B] Copy OK

All tracks accurately ripped

No errors occurred

End of status report
REM GENRE RockREM DATE 1984REM DISCID 5D095108REM COMMENT "ExactAudioCopy v0.99pb5"FILE "01 Distant Early Warning.wav" WAVE TRACK 01 AUDIO INDEX 01 00:00:00FILE "02 Afterimage.wav" WAVE TRACK 02 AUDIO INDEX 01 00:00:00FILE "03 Red Sector A.wav" WAVE TRACK 03 AUDIO INDEX 01 00:00:00FILE "04 The Enemy Within.wav" WAVE TRACK 04 AUDIO INDEX 01 00:00:00 TRACK 05 AUDIO INDEX 00 04:37:00FILE "05 The Body Electric.wav" WAVE INDEX 01 00:00:00FILE "06 Kid Gloves.wav" WAVE TRACK 06 AUDIO INDEX 01 00:00:00FILE "07 Red Lenses.wav" WAVE TRACK 07 AUDIO INDEX 01 00:00:00FILE "08 Between the Wheels.wav" WAVE TRACK 08 AUDIO INDEX 01 00:00:00
[CUETools log; Date: 01.12.2012 23:37:01; Version: 2.1.4][CTDB TOCID: DjadndQ8f8JX7TRXkOnVYbXeuyg-] found.Track | CTDB Status 1 | (1/1) Accurately ripped 2 | (1/1) Accurately ripped 3 | (1/1) Accurately ripped 4 | (1/1) Accurately ripped 5 | (1/1) Accurately ripped 6 | (1/1) Accurately ripped 7 | (1/1) Accurately ripped 8 | (1/1) Accurately ripped[AccurateRip ID: 000c3934-00514f1e-5d095108] found.Track [ CRC | V2 ] Status 01 [1e2214f3|acf42ac6] (2+0/2) Accurately ripped 02 [8e26f681|02e26eaa] (2+0/2) Accurately ripped 03 [1aee6abe|b62601d5] (2+0/2) Accurately ripped 04 [f0082961|fa6f85e2] (2+0/2) Accurately ripped 05 [c4e20231|30a26d7c] (2+0/2) Accurately ripped 06 [5ff6e649|852332ae] (2+0/2) Accurately ripped 07 [ef0d47a8|a8b44321] (2+0/2) Accurately ripped 08 [e231411b|32516f73] (2+0/2) Accurately ripped

Track Peak [ CRC32 ] [W/O NULL] [ LOG ] -- 100,0 [7464AF18] [53DFCF57] 01 100,0 [C73C202D] [FF2D3999] CRC32 02 100,0 [67A309C7] [EA1FA515] CRC32 03 100,0 [3792DB63] [7A22ABF0] CRC32 04 100,0 [A00248F0] [07D612C0] CRC32 05 100,0 [6A7BC69A] [889C199A] CRC32 06 100,0 [0256F2C5] [18EAD694] CRC32 07 100,0 [8C960496] [89C5C81E] CRC32 08 100,0 [000F4564] [F585E256] CRC32
источник: demonoid

Трекер:  [ 09-Дек-2012 15:18 ]

  

Скачать .torrent

Размер .torrent файла 27 KB


Размер: 1.84 GB
Хэш (hash) релиза: 3e73cd38183cc17f0e29e7e6604532b3fabc3662

Еще никто не оставлял запись к записи скачать торрент Rush - коллекция редких изданий 7 CD - 1978-1984, FLAC . Будь первым!

!Обратная связь