Скачать через торрент музыку Rocky Sharpe & The Replays - Looking For An Echo бесплатно без регистрации torrent

Если у вас наблюдаются проблемы со скриншотами, переходом по ссылками, скачиванием торрентов - проблемы в блокировщике рекламы AdBlock. #хорошегоДня!


Статистика раздачи
Размер:  502 MB   |    Зарегистрирован:  4 года 8 месяцев   |    .torrent скачан:  4 раза   |   
Раздают:  1  
   
Загрузка...
 
Автор Сообщение

Galfimbul

avatar Galfimbul


Rocky Sharpe & The Replays / Looking For An Echo

Жанр: Doo-Wop/Shoo-Wop/Ding-A-Ling
Страна-производитель диска: UK
Год издания: 1999
Издатель (лейбл): Ace Records Ltd.
Страна: UK
Аудиокодек: FLAC (*.flac)
Тип рипа: image+.cue
Битрейт аудио: lossless
Продолжительность: 77:00
Источник (релизер): AUDELAS KINGDOM
Наличие сканов в содержимом раздачи: да
01. Looking For An Echo
02. Rama Lama Ding Dong
03. A Teenager In Love
04. Tock Tock
05. Imagination
06. Oop Doop Doop
07. Heart
08. Love Will Make You Fail In School
09. Never
10. Silhouttes
11. Return To Sender
12. Christmas Tears Will Fall
13. I'M Afraid (The Masquerade Is Over)
14. Never Be Anyone Else But You
15. Come On Let'S Go
16. I Knew From The Start
17. Martian Hop
18. I Really Love You
19. Take My Hand
20. Mary (Won'T You Marry Me)
21. Devil Or Angel
22. A Fool In Love With You
23. White Christmas
24. Let'S Live
25. Can'T Stand It Anymore
26. Shout! Shout! (Knock Yourself Out)
27. La Bamba
Доп. информация: http://www.youtube.com/watch?v=Ooll8gfuWzE
Exact Audio Copy V1.0 beta 2 from 29. April 2011

Отчёт EAC об извлечении, выполненном 30. ноября 2012, 20:52

Rocky Sharpe & The Replays / Looking For An Echo

Дисковод: ATAPI iHAS124 B Adapter: 1 ID: 1

Режим чтения : ДостоверностьИспользование точного потока : ДаОтключение кэша аудио : ДаИспользование указателей C2 : Нет

Коррекция смещения при чтении : 6Способность читать области Lead-in и Lead-out : НетЗаполнение пропущенных сэмплов тишиной : ДаУдаление блоков с тишиной в начале и конце : НетПри вычислениях CRC использовались нулевые сэмплы : ДаИнтерфейс : Встроенный Win32-интерфейс для Win NT/2000

Выходной формат : Пользовательский кодировщикВыбранный битрейт : 1024 kBit/sКачество : ВысокийДобавление ID3-тега : НетУтилита сжатия : C:\Program Files\Exact Audio Copy\FLAC\FLAC.EXEДополнительные параметры : -6 -V -T "ARTIST=%artist%" -T "TITLE=%title%" -T "ALBUM=%albumtitle%" -T "DATE=%year%" -T "TRACKNUMBER=%tracknr%" -T "GENRE=%genre%" -T "COMMENT=%comment%" -T "BAND=%albuminterpret%" -T "COMPOSER=%composer%" %haslyrics%--tag-from-

TOC извлечённого CD

Трек | Старт | Длительность | Начальный сектор | Конечный сектор --------------------------------------------------------------------- 1 | 0:00.00 | 3:11.27 | 0 | 14351 2 | 3:11.27 | 2:21.05 | 14352 | 24931 3 | 5:32.32 | 3:00.48 | 24932 | 38479 4 | 8:33.05 | 2:29.00 | 38480 | 49654 5 | 11:02.05 | 2:39.30 | 49655 | 61609 6 | 13:41.35 | 4:32.17 | 61610 | 82026 7 | 18:13.52 | 2:46.10 | 82027 | 94486 8 | 20:59.62 | 2:40.55 | 94487 | 106541 9 | 23:40.42 | 2:17.55 | 106542 | 116871 10 | 25:58.22 | 2:37.20 | 116872 | 128666 11 | 28:35.42 | 2:51.10 | 128667 | 141501 12 | 31:26.52 | 3:00.28 | 141502 | 155029 13 | 34:27.05 | 3:35.17 | 155030 | 171171 14 | 38:02.22 | 2:43.00 | 171172 | 183396 15 | 40:45.22 | 2:45.08 | 183397 | 195779 16 | 43:30.30 | 2:52.72 | 195780 | 208751 17 | 46:23.27 | 2:38.58 | 208752 | 220659 18 | 49:02.10 | 2:27.50 | 220660 | 231734 19 | 51:29.60 | 2:53.40 | 231735 | 244749 20 | 54:23.25 | 3:32.30 | 244750 | 260679 21 | 57:55.55 | 2:17.30 | 260680 | 270984 22 | 60:13.10 | 2:48.15 | 270985 | 283599 23 | 63:01.25 | 2:24.32 | 283600 | 294431 24 | 65:25.57 | 3:13.53 | 294432 | 308959 25 | 68:39.35 | 3:35.42 | 308960 | 325126 26 | 72:15.02 | 2:49.10 | 325127 | 337811 27 | 75:04.12 | 2:31.30 | 337812 | 349166

Характеристики диапазона извлечения и сообщения об ошибках

Выбранный диапазон

Имя файла D:\Muzika\Rocky Sharpe & The Replays - Looking For An Echo (1999)\Rocky Sharpe & The Replays - Looking For An Echo.wav

Пиковый уровень 99.8 % Скорость извлечения 9.9 X Качество диапазона 100.0 % CRC теста 6600B025 CRC копии 6600B025 Копирование... OK

Ошибок не произошло

Конец отчёта

==== Контрольная сумма отчёта E8F24F229C6B04F186B372792B7C531908D7E0C29EEC87DD1EF10413DB0E6E45 ====


Трекер:  [ 09-Дек-2012 15:18 ]

  

Скачать .torrent

Размер .torrent файла 20 KB


Размер: 502 MB
Хэш (hash) релиза: 8bc91a80bcf727e75b73d0e5b111a4a309d07f31

Еще никто не оставлял запись к записи скачать торрент Rocky Sharpe & The Replays - Looking For An Echo . Будь первым!

!Обратная связь