Скачать через торрент музыку Ray Sharpe - Linda Lu бесплатно без регистрации torrent

Если у вас наблюдаются проблемы со скриншотами, переходом по ссылками, скачиванием торрентов - проблемы в блокировщике рекламы AdBlock. #хорошегоДня!


Статистика раздачи
Размер:  208 MB   |    Зарегистрирован:  4 года 8 месяцев   |    .torrent скачан:  16 раз   |   
Раздают:  1  
   
Загрузка...
 
Автор Сообщение

Galfimbul

avatar Galfimbul


Ray Sharpe / Linda Lu

Жанр: Rock'n'Roll
Страна-производитель диска: Germany
Год издания: 1995
Издатель (лейбл): Bear Family Records
Номер по каталогу: BCD 15888 AH
Страна: USA
Аудиокодек: FLAC (*.flac)
Тип рипа: image+.cue
Битрейт аудио: lossless
Продолжительность: 69:22
Источник (релизер): AUDELAS KINGDOM
Наличие сканов в содержимом раздачи: да

01. Linda Lu
02. Monkey's Uncle
03. Oh My Baby's Gone
04. That's The Way I Feel
05. Kewpie Doll
06. Red Sails In The Sunset
07. Silly Dilly Millie
08. The Bus Song
09. T. A. Blues
10. Long John
11. Gonna Let It Go This Time
12. Bermuda
13. Give'n Up
14. For You My Love
15. Justine
16. On The Street Where You Live
17. There'll Come A Day
18. Dallas (For You My Love)
19. So Sorry
20. Hey Little Girl
21. Thank You So Much
22. The New Linda Lu
23. T. A. Blues
24. Long John
25. Kewpie Doll
26. On The Street Where You Live
27. Red Sails In The Sunset
Доп. информация: http://www.youtube.com/watch?v=dWHtIafQaL0
Exact Audio Copy V1.0 beta 2 from 29. April 2011

Отчёт EAC об извлечении, выполненном 1. декабря 2012, 9:40

Ray Sharpe / Linda Lu

Дисковод: ATAPI iHAS124 B Adapter: 1 ID: 1

Режим чтения : ДостоверностьИспользование точного потока : ДаОтключение кэша аудио : ДаИспользование указателей C2 : Нет

Коррекция смещения при чтении : 6Способность читать области Lead-in и Lead-out : НетЗаполнение пропущенных сэмплов тишиной : ДаУдаление блоков с тишиной в начале и конце : НетПри вычислениях CRC использовались нулевые сэмплы : ДаИнтерфейс : Встроенный Win32-интерфейс для Win NT/2000

Выходной формат : Пользовательский кодировщикВыбранный битрейт : 1024 kBit/sКачество : ВысокийДобавление ID3-тега : НетУтилита сжатия : C:\Program Files\Exact Audio Copy\FLAC\FLAC.EXEДополнительные параметры : -6 -V -T "ARTIST=%artist%" -T "TITLE=%title%" -T "ALBUM=%albumtitle%" -T "DATE=%year%" -T "TRACKNUMBER=%tracknr%" -T "GENRE=%genre%" -T "COMMENT=%comment%" -T "BAND=%albuminterpret%" -T "COMPOSER=%composer%" %haslyrics%--tag-from-

TOC извлечённого CD

Трек | Старт | Длительность | Начальный сектор | Конечный сектор --------------------------------------------------------------------- 1 | 0:00.00 | 2:07.42 | 0 | 9566 2 | 2:07.42 | 2:22.63 | 9567 | 20279 3 | 4:30.30 | 2:08.10 | 20280 | 29889 4 | 6:38.40 | 1:53.67 | 29890 | 38431 5 | 8:32.32 | 2:30.55 | 38432 | 49736 6 | 11:03.12 | 2:11.15 | 49737 | 59576 7 | 13:14.27 | 2:16.28 | 59577 | 69804 8 | 15:30.55 | 2:21.70 | 69805 | 80449 9 | 17:52.50 | 3:07.52 | 80450 | 94526 10 | 21:00.27 | 2:42.30 | 94527 | 106706 11 | 23:42.57 | 2:36.53 | 106707 | 118459 12 | 26:19.35 | 2:32.37 | 118460 | 129896 13 | 28:51.72 | 2:20.45 | 129897 | 140441 14 | 31:12.42 | 2:46.10 | 140442 | 152901 15 | 33:58.52 | 2:25.15 | 152902 | 163791 16 | 36:23.67 | 2:19.25 | 163792 | 174241 17 | 38:43.17 | 2:09.28 | 174242 | 183944 18 | 40:52.45 | 2:39.12 | 183945 | 195881 19 | 43:31.57 | 2:10.60 | 195882 | 205691 20 | 45:42.42 | 2:12.10 | 205692 | 215601 21 | 47:54.52 | 2:04.10 | 215602 | 224911 22 | 49:58.62 | 2:03.40 | 224912 | 234176 23 | 52:02.27 | 2:55.65 | 234177 | 247366 24 | 54:58.17 | 2:43.08 | 247367 | 259599 25 | 57:41.25 | 2:39.55 | 259600 | 271579 26 | 60:21.05 | 3:18.32 | 271580 | 286461 27 | 63:39.37 | 2:10.08 | 286462 | 296219

Характеристики диапазона извлечения и сообщения об ошибках

Выбранный диапазон

Имя файла D:\Muzika\Ray Sharpe - Linda Lu (1995)\Ray Sharpe - Linda Lu.wav

Пиковый уровень 100.0 % Скорость извлечения 3.5 X Качество диапазона 100.0 % CRC теста F6EE030E CRC копии F6EE030E Копирование... OK

Ошибок не произошло

AccurateRip: сводка

Трек 1 : извлечено точно (доверие 1) [AB6B0965] (AR v1)Трек 2 : извлечено точно (доверие 1) [B8C67EB3] (AR v1)Трек 3 : извлечено точно (доверие 1) [0B7E0AB0] (AR v1)Трек 4 : извлечено точно (доверие 1) [0CC09806] (AR v1)Трек 5 : извлечено точно (доверие 1) [F954FED3] (AR v1)Трек 6 : извлечено точно (доверие 1) [F5D1D5A3] (AR v1)Трек 7 : извлечено точно (доверие 1) [620EBC60] (AR v1)Трек 8 : извлечено точно (доверие 1) [DD8A1AE1] (AR v1)Трек 9 : извлечено точно (доверие 1) [E15278DF] (AR v1)Трек 10 : извлечено точно (доверие 1) [33039DF4] (AR v1)Трек 11 : извлечено точно (доверие 1) [087D177A] (AR v1)Трек 12 : извлечено точно (доверие 1) [98703B5E] (AR v1)Трек 13 : извлечено точно (доверие 1) [198BC24F] (AR v1)Трек 14 : извлечено точно (доверие 1) [3637382E] (AR v1)Трек 15 : извлечено точно (доверие 1) [8179ADC2] (AR v1)Трек 16 : извлечено точно (доверие 1) [68669B13] (AR v1)Трек 17 : извлечено точно (доверие 1) [A4DCEA6D] (AR v1)Трек 18 : извлечено точно (доверие 1) [7D3FABF2] (AR v1)Трек 19 : извлечено точно (доверие 1) [92FEFB55] (AR v1)Трек 20 : извлечено точно (доверие 1) [E72D8E71] (AR v1)Трек 21 : извлечено точно (доверие 1) [146D696A] (AR v1)Трек 22 : извлечено точно (доверие 1) [DAB21A1E] (AR v1)Трек 23 : извлечено точно (доверие 1) [07513DC0] (AR v1)Трек 24 : извлечено точно (доверие 1) [4FCEBBC5] (AR v1)Трек 25 : извлечено точно (доверие 1) [58FAEA1A] (AR v1)Трек 26 : извлечено точно (доверие 1) [08CAB4CB] (AR v1)Трек 27 : извлечено точно (доверие 1) [64B61A30] (AR v1)

Все треки извлечены точно

Конец отчёта

==== Контрольная сумма отчёта D705BBF449D0E5032F7B7C898C00D67E866615B745CAFAC151ED01A9A1C7CE79 ====


Трекер:  [ 09-Дек-2012 15:18 ]

  

Скачать .torrent

Размер .torrent файла 17 KB


Размер: 208 MB
Хэш (hash) релиза: f153fbcbfb387ed841a8a18472b18ba2674f4605

Еще никто не оставлял запись к записи скачать торрент Ray Sharpe - Linda Lu . Будь первым!

!Обратная связь