Скачать через торрент музыку Glasgow Tiki Shakers - Little Orbit - 2012, FLAC бесплатно без регистрации torrent

Если у вас наблюдаются проблемы со скриншотами, переходом по ссылками, скачиванием торрентов - проблемы в блокировщике рекламы AdBlock. #хорошегоДня!


Статистика раздачи
Размер:  363 MB   |    Зарегистрирован:  4 года 8 месяцев   |    .torrent скачан:  9 раз   |   
Раздают:  1  
   
Загрузка...
 
Автор Сообщение

Galfimbul

avatar Galfimbul


Glasgow Tiki Shakers

Little Orbit

Жанр: Surf, Spy, Tiki, Spaghetti Western
Страна-производитель диска: USA
Год издания: 2012
Аудиокодек: FLAC (*.flac)
Тип рипа: image+.cue
Битрейт аудио: lossless
Продолжительность: 46:01
Источник (релизер): ©СЁРФ-Маrаtones aka izia1956
Наличие сканов в содержимом раздачи: да



01. Dekotora Run (3:43)
02. So Busted (3:07)
03. Little Orbit (3:48)
04. Drive There (3:38)
05. Sea Smoke Searchlight (3:23)
06. Nessie's Haggis Hat (3:29)
07. Turn On the Flash (4:38)
08. Swim In (3:51)
09. Kagoshima Go (2:42)
10. Hermit Crab Heads Home (5:40)
11. Diving Bell (3:49)
12. Zanja Daze (4:07)

Exact Audio Copy V0.99 prebeta 5 from 4. May 2009

Отчёт EAC об извлечении, выполненном 11. ноября 2012, 15:11

Glasgow Tiki Shakers / Little Orbit

Дисковод: PLEXTOR DVDR PX-880SA Adapter: 1 ID: 0

Режим чтения : ДостоверностьИспользование точного потока : ДаОтключение кэша аудио : ДаИспользование указателей C2 : Нет

Коррекция смещения при чтении : 6Способность читать области Lead-in и Lead-out : НетЗаполнение пропущенных сэмплов тишиной : ДаУдаление блоков с тишиной в начале и конце : НетПри вычислениях CRC использовались нулевые сэмплы : ДаИнтерфейс : Установленный внешний ASPI-интерфейс

Выходной формат : Пользовательский кодировщикВыбранный битрейт : 1024 kBit/sКачество : ВысокийДобавление ID3-тэга : НетУтилита сжатия : C:\Program Files\Exact Audio Copy\FLAC\FLAC.EXEДополнительные параметры : -10 -V -T "ARTIST=%a" -T "TITLE=%t" -T "ALBUM=%g" -T "DATE=%y" -T "TRACKNUMBER=%n" -T "GENRE=%m" -T "COMMENT=%e" %s -o %d

TOC извлечённого CD

Трек | Старт | Длительность | Начальный сектор | Конечный сектор --------------------------------------------------------------------- 1 | 0:00.00 | 3:43.02 | 0 | 16726 2 | 3:43.02 | 3:07.21 | 16727 | 30772 3 | 6:50.23 | 3:48.10 | 30773 | 47882 4 | 10:38.33 | 3:38.52 | 47883 | 64284 5 | 14:17.10 | 3:23.59 | 64285 | 79568 6 | 17:40.69 | 3:29.60 | 79569 | 95303 7 | 21:10.54 | 4:38.19 | 95304 | 116172 8 | 25:48.73 | 3:51.67 | 116173 | 133564 9 | 29:40.65 | 2:42.63 | 133565 | 145777 10 | 32:23.53 | 5:40.28 | 145778 | 171305 11 | 38:04.06 | 3:49.21 | 171306 | 188501 12 | 41:53.27 | 4:07.71 | 188502 | 207097

Характеристики диапазона извлечения и сообщения об ошибках

Выбранный диапазон

Имя файла F:\BitComet\Glasgow Tiki Shakers - Little Orbit(2012)(flac)\Glasgow Tiki Shakers - Little Orbit.wav

Пиковый уровень 100.0 % Качество диапазона 100.0 % CRC теста 8EE2C66C CRC копии 8EE2C66C Копирование... OK

Ошибок не произошло

AccurateRip: сводка

Трек 1 нет в базе данныхТрек 2 нет в базе данныхТрек 3 нет в базе данныхТрек 4 нет в базе данныхТрек 5 нет в базе данныхТрек 6 нет в базе данныхТрек 7 нет в базе данныхТрек 8 нет в базе данныхТрек 9 нет в базе данныхТрек 10 нет в базе данныхТрек 11 нет в базе данныхТрек 12 нет в базе данных

Ни одного трека нет в базе AccurateRip

Конец отчёта
Доп. информация: ©СЁРФ-Марафон продолжает Glasgow Tiki Shakers!!!

Рип сделан собственноручно.
Сканы в папке.
Ознакомиться (прослушать) можно здесь

Рип от ©СЁРФ-Маrаtones aka izia1956

Трекер:  [ 09-Дек-2012 15:18 ]

  

Скачать .torrent

Размер .torrent файла 15 KB


Размер: 363 MB
Хэш (hash) релиза: 07a56aa999b169657ed3cbef620003118369a75d

Еще никто не оставлял запись к записи скачать торрент Glasgow Tiki Shakers - Little Orbit - 2012, FLAC . Будь первым!

!Обратная связь