..."/> ...">

Скачать через торрент музыку Donovan - Love Is Hot, Truth is Molten бесплатно без регистрации torrent

Если у вас наблюдаются проблемы со скриншотами, переходом по ссылками, скачиванием торрентов - проблемы в блокировщике рекламы AdBlock. #хорошегоДня!


Статистика раздачи
Размер:  571 MB   |    Зарегистрирован:  4 года 8 месяцев   |    .torrent скачан:  5 раз   |   
Раздают:  1  
   
Загрузка...
 
Автор Сообщение

Galfimbul

avatar Galfimbul


Donovan / Love Is Hot, Truth is Molten (Original Essential Recordings 1965-1973)

Жанр: Folk-Rock
Страна-производитель диска: Australia
Год издания: 1998
Издатель (лейбл): Raven
Номер по каталогу: RVCD-68
Страна: Глазго, Шотландия
Аудиокодек: FLAC (*.flac)
Тип рипа: image+.cue
Битрейт аудио: lossless
Продолжительность: 1:18:32
Источник (релизер): Собственный рип
Наличие сканов в содержимом раздачи: да
Треклист:
01. "Catch the Wind" – 2:54
02. "Colours" – 2:43
03. "Universal Soldier" (Buffy Sainte-Marie) – 2:12
04. "Hey Gyp (Dig the Slowness)" – 3:11
05. "Josie" – 3:24
06. "Season of the Witch" – 5:00
07. "Celeste" – 4:09
08. "Sunshine Superman" – 4:33
09. "The Trip" – 4:34
10."Mellow Yellow" - 3:41
11."Superlungs" – 3:15
12."Epistle to Dippy" – 3:09
13. "There Is a Mountain" – 2:34
14. "Wear Your Love Like Heaven" – 2:24
15. "Jennifer Juniper" – 2:42
16. "Poor Cow" – 2:56
17. "Hurdy Gurdy Man" – 3:15
18. "Laleña" – 2:59
19. "Atlantis" – 5:01
20. "Goo Goo Barabajagal (Love Is Hot)" – 3:18
21. "To Susan on the West Coast Waiting" – 3:11
22. "Celia of the Seals" – 3:00
23. "Cosmic Wheels" – 4:02
Exact Audio Copy V1.0 beta 1 from 15. November 2010

EAC extraction logfile from 29. November 2012, 16:52

Donovan / Love Is Hot, Truth is Molten

Used drive : Optiarc DVD RW AD-7263S Adapter: 3 ID: 0

Read mode : SecureUtilize accurate stream : YesDefeat audio cache : YesMake use of C2 pointers : No

Read offset correction : 48Overread into Lead-In and Lead-Out : NoFill up missing offset samples with silence : YesDelete leading and trailing silent blocks : NoNull samples used in CRC calculations : YesUsed interface : Native Win32 interface for Win NT & 2000

Used output format : User Defined EncoderSelected bitrate : 32 kBit/sQuality : HighAdd ID3 tag : NoCommand line compressor : C:\Program Files\Exact Audio Copy\Flac\flac.exeAdditional command line options : -T "DATE=%y" -T "GENRE=%m" -8 -V %s

TOC of the extracted CD

Track | Start | Length | Start sector | End sector --------------------------------------------------------- 1 | 0:00.00 | 2:55.12 | 0 | 13136 2 | 2:55.12 | 2:44.60 | 13137 | 25496 3 | 5:39.72 | 2:12.53 | 25497 | 35449 4 | 7:52.50 | 3:11.25 | 35450 | 49799 5 | 11:04.00 | 3:24.60 | 49800 | 65159 6 | 14:28.60 | 5:01.00 | 65160 | 87734 7 | 19:29.60 | 4:09.37 | 87735 | 106446 8 | 23:39.22 | 4:35.38 | 106447 | 127109 9 | 28:14.60 | 4:34.60 | 127110 | 147719 10 | 32:49.45 | 3:41.47 | 147720 | 164341 11 | 36:31.17 | 3:16.50 | 164342 | 179091 12 | 39:47.67 | 3:09.48 | 179092 | 193314 13 | 42:57.40 | 2:36.55 | 193315 | 205069 14 | 45:34.20 | 2:25.47 | 205070 | 215991 15 | 47:59.67 | 2:42.45 | 215992 | 228186 16 | 50:42.37 | 2:57.28 | 228187 | 241489 17 | 53:39.65 | 3:15.07 | 241490 | 256121 18 | 56:54.72 | 2:59.48 | 256122 | 269594 19 | 59:54.45 | 5:01.07 | 269595 | 292176 20 | 64:55.52 | 3:19.48 | 292177 | 307149 21 | 68:15.25 | 3:12.57 | 307150 | 321606 22 | 71:28.07 | 3:01.30 | 321607 | 335211 23 | 74:29.37 | 4:02.58 | 335212 | 353419

Range status and errors

Selected range

Filename C:\Documents and Settings\maxim\Мои документы\Моя музыка\Donovan - Love Is Hot, Truth is Molten.wav

Peak level 100.0 % Extraction speed 0.2 X Range quality 100.0 % Test CRC 9BF759E2 Copy CRC 9BF759E2 Copy OK

No errors occurred

AccurateRip summary

Track 1 cannot be verified as accurate (confidence 2) [A7879350], AccurateRip returned [1C393694]Track 2 cannot be verified as accurate (confidence 2) [3DAAF736], AccurateRip returned [1C53BEE2]Track 3 cannot be verified as accurate (confidence 2) [B09F648E], AccurateRip returned [22C36ED0]Track 4 cannot be verified as accurate (confidence 2) [6A65E7EC], AccurateRip returned [2FE0EB01]Track 5 cannot be verified as accurate (confidence 2) [F302EBAF], AccurateRip returned [06CBCA80]Track 6 cannot be verified as accurate (confidence 3) [2CCC99BB], AccurateRip returned [1D8BCA07]Track 7 cannot be verified as accurate (confidence 2) [6E2F770F], AccurateRip returned [F07E8425]Track 8 cannot be verified as accurate (confidence 2) [35C2E1D2], AccurateRip returned [2964B9CA]Track 9 cannot be verified as accurate (confidence 2) [DCE97A4D], AccurateRip returned [409AA531]Track 10 cannot be verified as accurate (confidence 2) [050381CF], AccurateRip returned [244F81CD]Track 11 cannot be verified as accurate (confidence 2) [B83CC937], AccurateRip returned [5C718428]Track 12 cannot be verified as accurate (confidence 2) [0B4167F0], AccurateRip returned [276E2830]Track 13 cannot be verified as accurate (confidence 2) [116B5E0E], AccurateRip returned [C9C3E335]Track 14 cannot be verified as accurate (confidence 2) [7EC99DF0], AccurateRip returned [CE8B9D22]Track 15 cannot be verified as accurate (confidence 2) [82C891AC], AccurateRip returned [EB80683A]Track 16 cannot be verified as accurate (confidence 2) [4A83486C], AccurateRip returned [3E64EA73]Track 17 cannot be verified as accurate (confidence 2) [79280CF8], AccurateRip returned [E8DE0338]Track 18 cannot be verified as accurate (confidence 2) [16FAA243], AccurateRip returned [DBFF8100]Track 19 cannot be verified as accurate (confidence 2) [2A79A6B9], AccurateRip returned [7E1BE5C8]Track 20 cannot be verified as accurate (confidence 2) [0885B3BC], AccurateRip returned [EB1B44EB]Track 21 cannot be verified as accurate (confidence 2) [4E4AF388], AccurateRip returned [29B22F58]Track 22 cannot be verified as accurate (confidence 2) [E88640A9], AccurateRip returned [44236B29]Track 23 cannot be verified as accurate (confidence 2) [B5FFD7DF], AccurateRip returned [AF216BAD]

No tracks could be verified as accurateYou may have a different pressing from the one(s) in the database

End of status report

==== Log checksum 21D24090F8B25FBE1DBB56BCF98F1D6E183AA25612C1EBC76123918649EEB513 ====


Трекер:  [ 09-Дек-2012 15:18 ]

  

Скачать .torrent

Размер .torrent файла 12 KB


Размер: 571 MB
Хэш (hash) релиза: e578bb41d526866cd07fe49537e5d3e55c17fa88

Еще никто не оставлял запись к записи скачать торрент Donovan - Love Is Hot, Truth is Molten . Будь первым!

!Обратная связь