Скачать через торрент музыку Jozef Van Wissem & Jim Jarmusch - The Mystery of Heaven - 2012, FLAC бесплатно без регистрации torrent

Если у вас наблюдаются проблемы со скриншотами, переходом по ссылками, скачиванием торрентов - проблемы в блокировщике рекламы AdBlock. #хорошегоДня!


Статистика раздачи
Размер:  287 MB   |    Зарегистрирован:  4 года 11 месяцев   |    .torrent скачан:  5 раз   |   
Раздают:  1  
   
Загрузка...
 
Автор Сообщение

Galfimbul

avatar Galfimbul


Jozef Van Wissem & Jim Jarmusch - The Mystery of Heaven

Жанр: Rock, Folk, Ambient, Experimental
Страна: США
Год издания: 2012
Аудиокодек: FLAC
Тип рипа: tracks+.cue
Битрейт аудио: lossless
Продолжительность: 00:48:01
Источник: what.cd



Etimasia [03:13]
Flowing the Light of the Godhead [11:03]
The Mystery of Heaven (Long Version) [09:57]
The More She Burns the More Beautiful She Glows (feat. Tilda Swinton) [10:56]
Etimasia (Reprise) [01:44]
Flowing Light of the Godhead (Eternal Sun) [11:08]
Exact Audio Copy V1.0 beta 3 from 29. August 2011

EAC extraction logfile from 19. November 2012, 17:29

Jozef Van Wissem & Jim Jarmusch / The Mystery of Heaven

Used drive : HL-DT-STDVDRAM GP40LB10 Adapter: 1 ID: 0

Read mode : SecureUtilize accurate stream : YesDefeat audio cache : YesMake use of C2 pointers : No

Read offset correction : 6Overread into Lead-In and Lead-Out : NoFill up missing offset samples with silence : YesDelete leading and trailing silent blocks : NoNull samples used in CRC calculations : YesUsed interface : Native Win32 interface for Win NT & 2000Gap handling : Appended to previous track

Used output format : User Defined EncoderSelected bitrate : 1024 kBit/sQuality : HighAdd ID3 tag : NoCommand line compressor : C:\Program Files (x86)\Exact Audio Copy\FLAC\FLAC.EXEAdditional command line options : -8 -V -T "ARTIST=%artist%" -T "TITLE=%title%" -T "ALBUM=%albumtitle%" -T "DATE=%year%" -T "TRACKNUMBER=%tracknr%" -T "GENRE=%genre%" -T "PERFORMER=%albuminterpret%" -T "COMPOSER=%composer%" %haslyrics%--tag-from-file=LYRICS="%lyricsfile%"%haslyrics% -T "ALBUMARTIST=%albumartist%" -T "DISCNUMBER=%cdnumber%" -T "TOTALDISCS=%totalcds%" -T "TOTALTRACKS=%numtracks%" -T "COMMENT=%comment%" %source% -o %dest%

TOC of the extracted CD

Track | Start | Length | Start sector | End sector --------------------------------------------------------- 1 | 0:00.00 | 3:12.71 | 0 | 14470 2 | 3:12.71 | 11:03.06 | 14471 | 64201 3 | 14:16.02 | 9:56.58 | 64202 | 108959 4 | 24:12.60 | 10:56.09 | 108960 | 158168 5 | 35:08.69 | 1:44.35 | 158169 | 166003 6 | 36:53.29 | 11:07.68 | 166004 | 216096

Track 1

Filename I:\Music3\Jozef Van Wissem & Jim Jarmusch - The Mystery of Heaven (2012) FLAC\01 - Etimasia.wav

Pre-gap length 0:00:02.00

Peak level 77.1 % Extraction speed 1.1 X Track quality 100.0 % Test CRC A3F6A85B Copy CRC A3F6A85B Track not present in AccurateRip database Copy OK

Track 2

Filename I:\Music3\Jozef Van Wissem & Jim Jarmusch - The Mystery of Heaven (2012) FLAC\02 - Flowing the Light of the Godhead.wav

Peak level 96.6 % Extraction speed 1.5 X Track quality 100.0 % Test CRC D32E75F1 Copy CRC D32E75F1 Track not present in AccurateRip database Copy OK

Track 3

Filename I:\Music3\Jozef Van Wissem & Jim Jarmusch - The Mystery of Heaven (2012) FLAC\03 - The Mystery of Heaven (Long Version).wav

Peak level 95.5 % Extraction speed 1.8 X Track quality 100.0 % Test CRC A10C6233 Copy CRC A10C6233 Track not present in AccurateRip database Copy OK

Track 4

Filename I:\Music3\Jozef Van Wissem & Jim Jarmusch - The Mystery of Heaven (2012) FLAC\04 - The More She Burns the More Beautiful She Glows (feat. Tilda Swinton).wav

Peak level 96.6 % Extraction speed 2.0 X Track quality 100.0 % Test CRC 7D656527 Copy CRC 7D656527 Track not present in AccurateRip database Copy OK

Track 5

Filename I:\Music3\Jozef Van Wissem & Jim Jarmusch - The Mystery of Heaven (2012) FLAC\05 - Etimasia (Reprise).wav

Peak level 77.2 % Extraction speed 1.6 X Track quality 100.0 % Test CRC 975C6817 Copy CRC 975C6817 Track not present in AccurateRip database Copy OK

Track 6

Filename I:\Music3\Jozef Van Wissem & Jim Jarmusch - The Mystery of Heaven (2012) FLAC\06 - Flowing Light of the Godhead (Eternal Sun).wav

Peak level 96.6 % Extraction speed 2.3 X Track quality 100.0 % Test CRC 6508AB3D Copy CRC 6508AB3D Track not present in AccurateRip database Copy OK

None of the tracks are present in the AccurateRip database

No errors occurred

End of status report

==== Log checksum B9EE97207055C75F94CF9E21E154D1F88118EA8376C81A94F6CA01B15A9E5BF4 ====
REM DATE 2012REM DISCID 410B4106REM COMMENT "ExactAudioCopy v1.0b3"FILE "01 - Etimasia.wav" WAVE TRACK 01 AUDIO INDEX 01 00:00:00FILE "02 - Flowing the Light of the Godhead.wav" WAVE TRACK 02 AUDIO INDEX 01 00:00:00FILE "03 - The Mystery of Heaven (Long Version).wav" WAVE TRACK 03 AUDIO INDEX 01 00:00:00FILE "04 - The More She Burns the More Beautiful She Glows (feat. Tilda Swinton).wav" WAVE TRACK 04 AUDIO INDEX 01 00:00:00FILE "05 - Etimasia (Reprise).wav" WAVE TRACK 05 AUDIO INDEX 01 00:00:00FILE "06 - Flowing Light of the Godhead (Eternal Sun).wav" WAVE TRACK 06 AUDIO INDEX 01 00:00:00


Трекер:  [ 09-Дек-2012 15:17 ]

  

Скачать .torrent

Размер .torrent файла 12 KB


Размер: 287 MB
Хэш (hash) релиза: 3ce39f547d1e1e763fe9dd348edc71a8ca1dc1bf

Еще никто не оставлял запись к записи скачать торрент Jozef Van Wissem & Jim Jarmusch - The Mystery of Heaven - 2012, FLAC . Будь первым!

!Обратная связь