Скачать через торрент музыку Peter Frampton - The Art Of Control - 1982 бесплатно без регистрации torrent

Если у вас наблюдаются проблемы со скриншотами, переходом по ссылками, скачиванием торрентов - проблемы в блокировщике рекламы AdBlock. #хорошегоДня!


Статистика раздачи
Размер:  294 MB   |    Зарегистрирован:  4 года 10 месяцев   |    .torrent скачан:  8 раз   |   
Раздают:  1  
   
Загрузка...
 
Автор Сообщение

Galfimbul

avatar Galfimbul


Peter Frampton - The Art Of Control

Жанр: Hard Rock
Страна-производитель диска: Japan
Год издания диска: 2008
Издатель (лейбл): A&M Records
Номер по каталогу: UICY-93606
Страна: UK
Аудио кодек: FLAC (*.flac)
Тип рипа: tracks+.cue
Битрейт аудио: lossless
Продолжительность: 00:36:05
Источник (релизер): runner
Наличие сканов в содержимом раздачи: да

Треклист:

01. I Read the News 04:01
02. Sleepwalk 04:35
03. Save Me 03:47
04. Back to Eden 04:46
05. An Eye for an Eye 03:50
06. Don't Think About Me 03:42
07. Heart in the Fire 04:28
08. Here Comes Caroline 03:40
09. Barbara's Vacation 03:16
Exact Audio Copy V1.0 beta 1 from 15. November 2010

EAC extraction logfile from 19. April 2011, 15:47

Peter Frampton / The Art Of Control

Used drive : HL-DT-STDVD-ROM GDRH10N Adapter: 3 ID: 0

Read mode : SecureUtilize accurate stream : YesDefeat audio cache : YesMake use of C2 pointers : No

Read offset correction : 102Overread into Lead-In and Lead-Out : NoFill up missing offset samples with silence : YesDelete leading and trailing silent blocks : NoNull samples used in CRC calculations : YesUsed interface : Native Win32 interface for Win NT & 2000Gap handling : Appended to previous track

Used output format : User Defined EncoderSelected bitrate : 896 kBit/sQuality : HighAdd ID3 tag : NoCommand line compressor : C:\Programfiler\Exact Audio Copy\FLAC\FLAC.EXEAdditional command line options : -8 -V -T "ARTIST=%a" -T "TITLE=%t" -T "ALBUM=%g" -T "DATE=%y" -T "TRACKNUMBER=%n" -T "TOTALTRACKS=%x" -T "GENRE=%m" -T "ALBUMARTIST=%v" -T "ALBUM ARTIST=%v" -T "COMMENT=EAC V1.0 beta 1, Secure Mode, Test & Copy, AccurateRip

TOC of the extracted CD

Track | Start | Length | Start sector | End sector --------------------------------------------------------- 1 | 0:00.00 | 4:00.49 | 0 | 18048 2 | 4:00.49 | 4:35.01 | 18049 | 38674 3 | 8:35.50 | 3:46.52 | 38675 | 55676 4 | 12:22.27 | 4:46.31 | 55677 | 77157 5 | 17:08.58 | 3:50.02 | 77158 | 94409 6 | 20:58.60 | 3:42.06 | 94410 | 111065 7 | 24:40.66 | 4:27.55 | 111066 | 131145 8 | 29:08.46 | 3:40.17 | 131146 | 147662 9 | 32:48.63 | 3:16.07 | 147663 | 162369

Track 1

Filename C:\[runner's rip]\Peter Frampton - The Art Of Control (1982) [flac] {Japan SHM-CD}\01 - I Read The News.wav

Pre-gap length 0:00:02.00

Peak level 99.9 % Extraction speed 5.2 X Track quality 100.0 % Test CRC 7AE9E80C Copy CRC 7AE9E80C Track not present in AccurateRip database Copy OK

Track 2

Filename C:\[runner's rip]\Peter Frampton - The Art Of Control (1982) [flac] {Japan SHM-CD}\02 - Sleepwalk.wav

Pre-gap length 0:00:01.32

Peak level 99.9 % Extraction speed 5.9 X Track quality 100.0 % Test CRC 9D2B6D36 Copy CRC 9D2B6D36 Track not present in AccurateRip database Copy OK

Track 3

Filename C:\[runner's rip]\Peter Frampton - The Art Of Control (1982) [flac] {Japan SHM-CD}\03 - Save Me.wav

Pre-gap length 0:00:01.08

Peak level 99.9 % Extraction speed 6.3 X Track quality 100.0 % Test CRC 1DC1349C Copy CRC 1DC1349C Track not present in AccurateRip database Copy OK

Track 4

Filename C:\[runner's rip]\Peter Frampton - The Art Of Control (1982) [flac] {Japan SHM-CD}\04 - Back To Eden.wav

Pre-gap length 0:00:01.25

Peak level 99.9 % Extraction speed 7.0 X Track quality 100.0 % Test CRC D1E23484 Copy CRC D1E23484 Track not present in AccurateRip database Copy OK

Track 5

Filename C:\[runner's rip]\Peter Frampton - The Art Of Control (1982) [flac] {Japan SHM-CD}\05 - An Eye For An Eye.wav

Pre-gap length 0:00:01.25

Peak level 99.9 % Extraction speed 7.3 X Track quality 100.0 % Test CRC FD3331EB Copy CRC FD3331EB Track not present in AccurateRip database Copy OK

Track 6

Filename C:\[runner's rip]\Peter Frampton - The Art Of Control (1982) [flac] {Japan SHM-CD}\06 - Don't Think About Me.wav

Pre-gap length 0:00:01.44

Peak level 99.9 % Extraction speed 7.6 X Track quality 100.0 % Test CRC 9AA336E5 Copy CRC 9AA336E5 Track not present in AccurateRip database Copy OK

Track 7

Filename C:\[runner's rip]\Peter Frampton - The Art Of Control (1982) [flac] {Japan SHM-CD}\07 - Heart In The Fire.wav

Pre-gap length 0:00:01.13

Peak level 99.9 % Extraction speed 8.2 X Track quality 100.0 % Test CRC 4818DD04 Copy CRC 4818DD04 Track not present in AccurateRip database Copy OK

Track 8

Filename C:\[runner's rip]\Peter Frampton - The Art Of Control (1982) [flac] {Japan SHM-CD}\08 - Here Comes Caroline.wav

Pre-gap length 0:00:00.49

Peak level 99.9 % Extraction speed 8.3 X Track quality 100.0 % Test CRC E8130BC9 Copy CRC E8130BC9 Track not present in AccurateRip database Copy OK

Track 9

Filename C:\[runner's rip]\Peter Frampton - The Art Of Control (1982) [flac] {Japan SHM-CD}\09 - Barbara's Vacation.wav

Pre-gap length 0:00:00.02

Peak level 99.9 % Extraction speed 8.4 X Track quality 100.0 % Test CRC C47B3F88 Copy CRC C47B3F88 Track not present in AccurateRip database Copy OK

None of the tracks are present in the AccurateRip database

No errors occurred

End of status report

==== Log checksum 58920075A7977E9435891463D50B99EB1F43EA06C6420957B06161FE3C42F317 ====
REM GENRE RockREM DATE 1982REM DISCID 60087409REM COMMENT "ExactAudioCopy v1.0b1"PERFORMER "Peter Frampton"TITLE "The Art Of Control"FILE "01 - I Read The News.wav" WAVE TRACK 01 AUDIO TITLE "I Read The News" PERFORMER "Peter Frampton" INDEX 01 00:00:00 TRACK 02 AUDIO TITLE "Sleepwalk" PERFORMER "Peter Frampton" INDEX 00 03:59:17FILE "02 - Sleepwalk.wav" WAVE INDEX 01 00:00:00 TRACK 03 AUDIO TITLE "Save Me" PERFORMER "Peter Frampton" INDEX 00 04:33:68FILE "03 - Save Me.wav" WAVE INDEX 01 00:00:00 TRACK 04 AUDIO TITLE "Back To Eden" PERFORMER "Peter Frampton" INDEX 00 03:45:27FILE "04 - Back To Eden.wav" WAVE INDEX 01 00:00:00 TRACK 05 AUDIO TITLE "An Eye For An Eye" PERFORMER "Peter Frampton" INDEX 00 04:45:06FILE "05 - An Eye For An Eye.wav" WAVE INDEX 01 00:00:00 TRACK 06 AUDIO TITLE "Don't Think About Me" PERFORMER "Peter Frampton" INDEX 00 03:48:33FILE "06 - Don't Think About Me.wav" WAVE INDEX 01 00:00:00 TRACK 07 AUDIO TITLE "Heart In The Fire" PERFORMER "Peter Frampton" INDEX 00 03:40:68FILE "07 - Heart In The Fire.wav" WAVE INDEX 01 00:00:00 TRACK 08 AUDIO TITLE "Here Comes Caroline" PERFORMER "Peter Frampton" INDEX 00 04:27:06FILE "08 - Here Comes Caroline.wav" WAVE INDEX 01 00:00:00 TRACK 09 AUDIO TITLE "Barbara's Vacation" PERFORMER "Peter Frampton" INDEX 00 03:40:15FILE "09 - Barbara's Vacation.wav" WAVE INDEX 01 00:00:00
-----------------------

DON'T MODIFY THIS FILE

-----------------------

PERFORMER: auCDtect Task Manager, ver. 1.5.1RC4 build 1.5.1.5Copyright (c) 2008-2010 y-soft. All rights reservedhttp://y-soft.org

ANALYZER: auCDtect: CD records authenticity detector, version 0.8.2Copyright (c) 2004 Oleg Berngardt. All rights reserved.Copyright (c) 2004 Alexander Djourik. All rights reserved.

FILE: 09 - Barbara's Vacation.flac Size: 25007079 Hash: FE6ADC339FD7A80758FD43090C3524FF Accuracy: -m8 Conclusion: CDDA 100% Signature: E2C657C9F4E0E4A88D5152BCE49ABDB843921F36FILE: 08 - Here Comes Caroline.flac Size: 27249512 Hash: 7C2606538BD02E1F053F621C3A42A478 Accuracy: -m8 Conclusion: CDDA 99% Signature: 936B75E5AB239C2759CE283F4B9BACABBC8D2349FILE: 07 - Heart In The Fire.flac Size: 34806140 Hash: AA58330D39A21AF5A56BE4DC3E7107B4 Accuracy: -m8 Conclusion: CDDA 100% Signature: 3133E42D6F74B58C5F02A44C1CC1F5E2B634D34CFILE: 06 - Don't Think About Me.flac Size: 28787028 Hash: E2C5E2FA5688DB41BBACF699DE82CA12 Accuracy: -m8 Conclusion: CDDA 100% Signature: BEB507E3FC202C7DBF80877FF01D5036C86B0D9AFILE: 05 - An Eye For An Eye.flac Size: 28764936 Hash: EA3298E0C437ADBA3B55D5FA98D7CA9F Accuracy: -m8 Conclusion: CDDA 100% Signature: C9313E17FCB42C96CFAF18C34BE8C4424561DD46FILE: 04 - Back To Eden.flac Size: 34897065 Hash: BC6A8FAF60B43877600BC265ED78D73D Accuracy: -m8 Conclusion: CDDA 100% Signature: 19373937D662A93C7997076FC980AFA21BA80823FILE: 03 - Save Me.flac Size: 29447418 Hash: 60627B8E08CE56818BCA8C3E6B12B240 Accuracy: -m8 Conclusion: CDDA 100% Signature: 5163E144B6470A600A00BC2CC4C961571DD38DA6FILE: 02 - Sleepwalk.flac Size: 35767973 Hash: D79D26D18D015F7A99DBD4E32F9C79BA Accuracy: -m8 Conclusion: CDDA 100% Signature: C91627CEB5FB71ED8DF9018322366164A01DC322FILE: 01 - I Read The News.flac Size: 30742264 Hash: 361EAE49455056A032047CF73D4F880C Accuracy: -m8 Conclusion: CDDA 100% Signature: 81ED80D0B7C9B729A9F1D2FE978A4E7819981B71
Доп. информация
Peter Frampton - guitar, keyboards, guitar synthesizer, vocals
Mark Goldenberg - guitar, background vocals
John Regan - bass
Harry Stinson - drums
Eddie Kramer - background vocals
Ian Lloyd - background vocals
John Dworkow - background vocals
Музыкант-самоучка, который, пытаясь стать универсалом, дорос до статуса суперпрофессионала, Фрэмптон родился в 1950 году в Кенте. На гитаре он играл уже в 8 лет, а позже собрал большую коллекцию записей гитаристов - Уэса Монтгомери, Кенни Баррелла и Джорджа Бенсона. В молодости он копировал манеру гитаристов групп Shadows и Ventures, позже - Чака Берри и Брайана Джонса. Самым последним его кумиром стал Эрик Клэптон, чей мелодичный и прозрачный способ игры во многом определил стиль Фрэмптона. В начале музыкальной карьеры об авторских и исполнительских способностях молодого певца и гитариста группы Herd никто ничего не знал: песни ансамxxx были в основном творениями дуэта Хоуард-Блэйкли, а основной публикой на концертах были девочки переходного возраста. Главным достоинством Фрэмптона в те времена было чистое "ренессансное" лицо, которое любили фотографировать со всевозможных позиций. Когда прямолинейный рок Herd перестал устраивать Питера, он, вместе со Стивом Марриоттом, начал новую страницу своей творческой жизни. Супергруппа Humble Рie умела сначала объединять звук электрогитар с акустикой, однако на музыкальном рынке, заполненном американскими "электрическими" творениями, и в сравнении с задорной гитарой и вокалом Марриотта Питер ничем не выделялся. Когда он пообвык, начал снова думать о самостоятельной работе, о полном самовыражении, и в 1971 году ушел из группы. И в самый последний момент своим участием в записи "живого" лонгплея в зале "Филмор Уэст" вывел Humble Рie в ряд лидеров того времени. Затем он начал быстро терять имя. Выпустил сольный альбом Framрton's Camel, в записи которого как сейшнмены участвовали Энди Боун, Ринго Старр, Клаус Вурман, а также басист Рик Уиллз и ударник Майк Келли, чуть позже, вместе с клавишником Майком Галлахером вошедшие в состав группы Фрэмптона Framрton's Camel. Их лонгплей Something's Haррening замкнул Toр 100 в США, где ансамбль провел два турне. Он, без сомнения, обладал оригинальностью, однако звуки его музыки не были приемлемыми ни для публики, ни для критики, один из которых выразился коротко: "Этим можно убить и верблюда". В конце 1974 года группа распалась. Снова потеря времени и энергии у Фрэмптона. А годы шли, и все чаще в песнях Питера отражались жизненные невзгоды. К 1976 году Фрэмптон ничем не отличался от других исполнителей, разве что долгами. А дальше - поворот в сюжете, совсем как в голливудском фильме: Фрэмптон врывается на позицию лидера рока своим двойным концертным лонгплеем Framрton Comes Alive. Потрясающий успех этого альбома был тем более удивителен, что он включал в себя только те композиции, которые уже можно было слышать на предыдущих пластинках Питера - 13 собственных и Jumрing Jack Flash от Rolling Stones. Немалую заслугу в успехе получили и ветераны студии Motown - ударник Джон Саемос, басист Стэнли Шелдон и клавишник/гитарист Боб Майо, самым неожиданным и приятным образом исполнившие песни, которые Фрэмптон ранее неудачно записал с участием "звезд" - например, All Right с лонгплея Framрton's Camel, на которой раньше играли Старр, Вурман и Билли Престон. Вероятно, годы стремлений и поисков, заполненные студийными записями с кем бы то ни было, помогли Питеру найти ключ к проблеме подбора состава. Ясный, красочный тон, живой ритм и небольшая склонность к свингу знаменовали на этом альбоме скорее энергичную манеру музыканта, нежели блюзовые влияния. При внимательном прослушивании слушателю оставалось восхищаться удачно подобранными роковыми деталями. В композиции I Wanna Go to the Sun гитара Питера просто поет. Совершенно иная сторона его творчества проявилась в звучании акустической гитары в песне All I Want to Be и 12-струнной гитары в Is By Our Side, характеризуя Фрэмптона как разностороннего, но не переусложненного исполнителя. Гибкий музыкальный вокал и цельная аранжировка напоминали творчество известного экспериментатора Стиви Уандера, но к этому влиянию Питер добавил самобытную и разнообразную окраску. Коллективная радость, струящаяся в звуковых оттенках гитары или электропианино, неоглупляющая и музыкальная, была ценна еще и потому, что представляла собой поток искренности в луже коммерческой музыки, заполнившей в то время музыкальный рынок. Диск I'm In You снова занял высокую позицию в американских чартах, но скорее по инерции успеха. А для записи лонгплея Where I Should Be Питер пригласил знаменитую духовую секцию группы Tower of Рower. Пытаясь удержать приобретенный высокий статус, Фрэмптон принял приглашение Роберта Стигвуда участвовать в фильме "Клуб одиноких сердец сержанта Пеппера". Но авиакатастрофа в 1978 году надолго вывела его из строя. Выпущенный после перерыва лонгплей Breaking All the Rules продемонстрировал новое направление в его творческой биографии, опирающееся главным образом на гитару и вокал. Пластинка The Art of Control прошла почти незамеченной, и лишь следующий лонгплей Рremonition, сделанный со значительным участием синтезаторов, обратил на себя внимание. Фрэмптон вернулся к сессионной работе. В конце 80х он участвовал в записи диска Never Let Me Down своего школьного приятеля Дэвида Боуи. В 1991 году он собирался реанимировать Humble Рie вместе со Стивом Марриоттом, но внезапная трагическая смерть последнего нарушила эти планы. В середине 90х активизировал сольную работу.


Трекер:  [ 09-Дек-2012 15:13 ]

  

Скачать .torrent

Размер .torrent файла 13 KB


Размер: 294 MB
Хэш (hash) релиза: a55e7ed069556b320fee10e91d033925834b3037

Еще никто не оставлял запись к записи скачать торрент Peter Frampton - The Art Of Control - 1982 . Будь первым!

!Обратная связь