Скачать через торрент музыку Renia - First Offenders - 1973 бесплатно без регистрации torrent

Если у вас наблюдаются проблемы со скриншотами, переходом по ссылками, скачиванием торрентов - проблемы в блокировщике рекламы AdBlock. #хорошегоДня!


Статистика раздачи
Размер:  289 MB   |    Зарегистрирован:  4 года 8 месяцев   |    .torrent скачан:  7 раз   |   
Раздают:  1  
   
Загрузка...
 
Автор Сообщение

Galfimbul

avatar Galfimbul


Renia - First Offenders

Жанр: Hard Rock
Страна-производитель диска: Sweden
Год издания диска: 2011
Издатель (лейбл): Flawed Gems
Номер по каталогу: GEM 67
Страна: UK
Аудио кодек: FLAC (*.flac)
Тип рипа: image+.cue
Битрейт аудио: lossless
Продолжительность: 00:39:39
Источник (релизер): WANO777
Наличие сканов в содержимом раздачи: да

Треклист:

01. You'd Best Believe It 03:50
02. Friend Out On The Road 04:43
03. Breakneck 05:07
04. Shelter 04:47
05. Cowboy's Dream 03:47
06. Slow Down 03:49
07. Drive Me Wild 04:40
08. I Suppose It's For The Best 03:25
09. Mighty Queen 05:31
Отсутствует
PERFORMER "Renia"TITLE "First Offenders"FILE "Renia - First Offenders.flac" WAVE TRACK 01 AUDIO TITLE "You'd Best Believe It" INDEX 01 00:00:00 TRACK 02 AUDIO TITLE "Friend Out On The Road" INDEX 01 03:50:01 TRACK 03 AUDIO TITLE "Breakneck" INDEX 01 08:33:62 TRACK 04 AUDIO TITLE "Shelter" INDEX 01 13:40:69 TRACK 05 AUDIO TITLE "Cowboy's Dream" INDEX 01 18:27:26 TRACK 06 AUDIO TITLE "Slow Down" INDEX 01 22:14:29 TRACK 07 AUDIO TITLE "Drive Me Wild" INDEX 01 26:03:34 TRACK 08 AUDIO TITLE "I Suppose It's For The Best" INDEX 01 30:43:32 TRACK 09 AUDIO TITLE "Mighty Queen" INDEX 01 34:08:34
-----------------------

DON'T MODIFY THIS FILE

-----------------------

PERFORMER: auCDtect Task Manager, ver. 1.5.1RC4 build 1.5.1.5Copyright (c) 2008-2010 y-soft. All rights reservedhttp://y-soft.org

ANALYZER: auCDtect: CD records authenticity detector, version 0.8.2Copyright (c) 2004 Oleg Berngardt. All rights reserved.Copyright (c) 2004 Alexander Djourik. All rights reserved.

FILE: Renia - First Offenders.flac Size: 287659188 Hash: 65AC30DC48115DF66B5612D168314474 Accuracy: -m8 Conclusion: CDDA 100% Signature: B3C9B316A598963338B81771B29741E5DF234683
Доп. информация
Malcolm Sutherland - Bass, Mellotron, Vocals
Dave Mathew - Drums, Percussion
John Robinson - Guitars, Vocals
Peter Sutherland - Keyboards, Vocals
Kenny Stewart - Lead Vocals
Этот довольно редкий и совершенно забытый альбом в оригинале был выпущен на Transatlantic Records - лейбле, известном в основном своими фолк или прогрессивными рок-релизами и это, конечно же, оказалось не самое лучшее место для издания тяжёлой музыки. Данный единственный LP группы RENIA можно классифицировать в виде твёрдого, энергичного и довольно простого хард-рокового альбома с сильным вокалом, изысканными мелодиями, имеющими некоторые прогрессивные воздействия (почти везде присутствует Хаммонд-орган и волшебные звуки меллотрона, в особенности на удивительно и действительно красивом треке 'Shelter'), похожие на STRAY, STRIDER и ранний NUTZ. Возможно, из-за не совсем удачного выбора лейбла для выпуска альбома, последний особым спросом не пользовался и, как это часто бывало, удручённая этим группа вскоре распалась. В 1975 году лидер-вокалист Кенни Стюарт (Kenny Stewart) сформировал группу DIRTY TRICKS, с которой выпустил три выразительных хард-рок альбома (есть на Сайте). Помимо фронтмена в RENIA состояли: John Robinson (electric & acoustic guitars, vocals), Malcolm Sutherland (bass guitar, mellotron, vocals), Peter Sutherland (keyboards, vocals) и Dave Matthew (drums, percussion).


Трекер:  [ 09-Дек-2012 15:13 ]

  

Скачать .torrent

Размер .torrent файла 12 KB


Размер: 289 MB
Хэш (hash) релиза: 90b23bab11dfeaafa9be82cb6eac043c4d988d60

Еще никто не оставлял запись к записи скачать торрент Renia - First Offenders - 1973 . Будь первым!

!Обратная связь