Скачать через торрент музыку Frank Zappa - Broadway The Hard Way бесплатно без регистрации torrent

Если у вас наблюдаются проблемы со скриншотами, переходом по ссылками, скачиванием торрентов - проблемы в блокировщике рекламы AdBlock. #хорошегоДня!


Статистика раздачи
Размер:  460 MB   |    Зарегистрирован:  4 года 10 месяцев   |    .torrent скачан:  22 раза   |   
Раздают:  1  
   
Загрузка...
 
Автор Сообщение

Galfimbul

avatar Galfimbul


Frank Zappa / Broadway The Hard Way (2012)

Жанр: Avant-rock
Страна-производитель диска: US
Год издания: 2012
Издатель (лейбл): Zappa Records
Номер по каталогу: ZR 3879
Страна: US
Аудиокодек: FLAC (*.flac)
Тип рипа: image+.cue
Битрейт аудио: lossless
Продолжительность: 1:11:10
Источник (релизер): собственный рип с фирменного диска
Наличие сканов в содержимом раздачи: да
Треклист:
1. Elvis Has Just Left The Building 2:25
2. Planet Of The Baritone Women 2:49
3. Any Kind Of Pain 5:42
4. Dickie's Such an Asshole 5:46
5. When The Lie's So Big 3:38
6. Rhymin' Man 3:50
7. Promiscuous 2:03
8. The Untouchables 2:26
9. Why Don't You Like Me? 2:58
10. Bacon Fat 1:29
11. Stolen Moments 2:58
12. Murder By Numbers 5:37
13. Jezebel Boy 2:27
14. Outside Now 7:50
15. Hot Plate Heaven At The Green Hotel 6:41
16. What Kind Of Girl? 3:17
17. Jesus Thinks You're a Jerk 9:16
Exact Audio Copy V1.0 beta 3 from 29. August 2011

EAC extraction logfile from 25. November 2012, 1:31

Frank Zappa / Broadway The Hard Way

Used drive : MATSHITADVD-RAM UJ-860S Adapter: 1 ID: 0

Read mode : SecureUtilize accurate stream : YesDefeat audio cache : YesMake use of C2 pointers : No

Read offset correction : 102Overread into Lead-In and Lead-Out : NoFill up missing offset samples with silence : YesDelete leading and trailing silent blocks : NoNull samples used in CRC calculations : YesUsed interface : Native Win32 interface for Win NT & 2000

Used output format : User Defined EncoderSelected bitrate : 128 kBit/sQuality : HighAdd ID3 tag : NoCommand line compressor : C:\Program Files\Exact Audio Copy\Flac\flac.exeAdditional command line options : -V -8 -T "Date=%year%" -T "Genre=%genre%" %source%

TOC of the extracted CD

Track | Start | Length | Start sector | End sector --------------------------------------------------------- 1 | 0:00.00 | 2:24.51 | 0 | 10850 2 | 2:24.51 | 2:48.40 | 10851 | 23490 3 | 5:13.16 | 5:42.19 | 23491 | 49159 4 | 10:55.35 | 5:45.59 | 49160 | 75093 5 | 16:41.19 | 3:38.01 | 75094 | 91444 6 | 20:19.20 | 3:50.13 | 91445 | 108707 7 | 24:09.33 | 2:02.37 | 108708 | 117894 8 | 26:11.70 | 2:26.02 | 117895 | 128846 9 | 28:37.72 | 2:57.60 | 128847 | 142181 10 | 31:35.57 | 1:29.16 | 142182 | 148872 11 | 33:04.73 | 2:58.02 | 148873 | 162224 12 | 36:03.00 | 5:37.28 | 162225 | 187527 13 | 41:40.28 | 2:27.11 | 187528 | 198563 14 | 44:07.39 | 7:49.47 | 198564 | 233785 15 | 51:57.11 | 6:40.56 | 233786 | 263841 16 | 58:37.67 | 3:16.55 | 263842 | 278596 17 | 61:54.47 | 9:15.50 | 278597 | 320271

Range status and errors

Selected range

Filename C:\FZ\1988-#53.Broadway_The_Hard_Way\CD.wav

Peak level 100.0 % Extraction speed 2.7 X Range quality 100.0 % Test CRC DB08D5F9 Copy CRC DB08D5F9 Copy OK

No errors occurred

AccurateRip summary

Track 1 not present in databaseTrack 2 not present in databaseTrack 3 not present in databaseTrack 4 not present in databaseTrack 5 not present in databaseTrack 6 not present in databaseTrack 7 not present in databaseTrack 8 not present in databaseTrack 9 not present in databaseTrack 10 not present in databaseTrack 11 not present in databaseTrack 12 not present in databaseTrack 13 not present in databaseTrack 14 not present in databaseTrack 15 not present in databaseTrack 16 not present in databaseTrack 17 not present in database

None of the tracks are present in the AccurateRip database

End of status report

==== Log checksum DA8E6A863AAF74A8D4E95DEE00E75511F0076D562E16F52D138F98A42C411BBD ====


Трекер:  [ 09-Дек-2012 15:13 ]

  

Скачать .torrent

Размер .torrent файла 37 KB


Размер: 460 MB
Хэш (hash) релиза: 503d55c26ae1933a6eb67cdd4bfb031397a1f409

Еще никто не оставлял запись к записи скачать торрент Frank Zappa - Broadway The Hard Way . Будь первым!

!Обратная связь