Скачать через торрент музыку Uncle Acid & The Deadbeats - Vol. 1; Blood lust бесплатно без регистрации torrent

Если у вас наблюдаются проблемы со скриншотами, переходом по ссылками, скачиванием торрентов - проблемы в блокировщике рекламы AdBlock. #хорошегоДня!


Статистика раздачи
Размер:  549 MB   |    Зарегистрирован:  4 года 11 месяцев   |    .torrent скачан:  72 раза   |   
Раздают:  1   Качают:  1  
   
Загрузка...
 
Автор Сообщение

Galfimbul

avatar Galfimbul


Uncle Acid & The Deadbeats / Vol. 1; Blood lust
Жанр: Stoner rock, Psychedelic rock
Страна: UK (Cambridge)
Год издания: 2010, 2011
Аудиокодек: FLAC (*.flac)
Тип рипа: tracks+.cue
Битрейт аудио: lossless
Продолжительность: 01:33:46
Наличие сканов в содержимом раздачи: да
Источник: what.cd
Last.fm | Myspace | Discogs | Facebook | Encyclopaedia Metallium
01. Crystal Spiders (03:38)
02. Witches Garden (04:07)
03. Dead Eyes Of London (06:36)
04. Lonely And Strange (03:56)
05. Vampire Circus (08:03)
06. Do What Your Love Tells You (05:37)
07. I Don't Know (07:50)
08. Wind Up Toys (05:19)

MusicBrainz.org
Exact Audio Copy V1.0 beta 3 from 29. August 2011

EAC extraction logfile from 26. June 2012, 13:48

Uncle Acid and the Deadbeats / Vol 1

Used drive : SlimtypeDVD A DS8A5SH Adapter: 1 ID: 0

Read mode : SecureUtilize accurate stream : YesDefeat audio cache : YesMake use of C2 pointers : No

Read offset correction : 6Overread into Lead-In and Lead-Out : NoFill up missing offset samples with silence : YesDelete leading and trailing silent blocks : NoNull samples used in CRC calculations : YesUsed interface : Native Win32 interface for Win NT & 2000Gap handling : Appended to previous track

Used output format : User Defined EncoderSelected bitrate : 1024 kBit/sQuality : HighAdd ID3 tag : YesCommand line compressor : C:\Program Files (x86)\Exact Audio Copy\Flac\flac.exeAdditional command line options : -8 -V -T "ARTIST=%artist%" -T "TITLE=%title%" -T "ALBUM=%albumtitle%" -T "DATE=%year%" -T "TRACKNUMBER=%tracknr%" -T "GENRE=%genre%" -T "PERFORMER=%albuminterpret%" -T "COMPOSER=%composer%" %haslyrics%--tag-from-file=LYRICS="%lyricsfile%"%haslyrics% -T "ALBUMARTIST=%albumartist%" -T "DISCNUMBER=%cdnumber%" -T "TOTALDISCS=%totalcds%" -T "TOTALTRACKS=%numtracks%" -T "COMMENT=%comment%" %source% -o %dest%

TOC of the extracted CD

Track | Start | Length | Start sector | End sector --------------------------------------------------------- 1 | 0:00.00 | 3:38.17 | 0 | 16366 2 | 3:38.17 | 4:06.61 | 16367 | 34877 3 | 7:45.03 | 6:36.02 | 34878 | 64579 4 | 14:21.05 | 3:56.02 | 64580 | 82281 5 | 18:17.07 | 8:02.56 | 82282 | 118487 6 | 26:19.63 | 5:36.41 | 118488 | 143728 7 | 31:56.29 | 7:49.69 | 143729 | 178972 8 | 39:46.23 | 5:18.21 | 178973 | 202843

Track 1

Filename C:\Users\SPFreak\Desktop\Uncle Acid and the Deadbeats-Vol.1-Flac\Uncle Acid and the Deadbeats-01-Crystal Spiders.wav

Pre-gap length 0:00:02.00

Peak level 26.2 % Extraction speed 2.8 X Track quality 100.0 % Test CRC 780D14ED Copy CRC 780D14ED Track not present in AccurateRip database Copy OK

Track 2

Filename C:\Users\SPFreak\Desktop\Uncle Acid and the Deadbeats-Vol.1-Flac\Uncle Acid and the Deadbeats-02-Witches Garden.wav

Peak level 42.6 % Extraction speed 3.0 X Track quality 100.0 % Test CRC DD9D7F77 Copy CRC DD9D7F77 Track not present in AccurateRip database Copy OK

Track 3

Filename C:\Users\SPFreak\Desktop\Uncle Acid and the Deadbeats-Vol.1-Flac\Uncle Acid and the Deadbeats-03-Dead Eyes Of London.wav

Peak level 50.0 % Extraction speed 3.6 X Track quality 100.0 % Test CRC 5D74C89C Copy CRC 5D74C89C Track not present in AccurateRip database Copy OK

Track 4

Filename C:\Users\SPFreak\Desktop\Uncle Acid and the Deadbeats-Vol.1-Flac\Uncle Acid and the Deadbeats-04-Lonely And Strange.wav

Peak level 30.8 % Extraction speed 3.0 X Track quality 99.9 % Test CRC 278A71AB Copy CRC 278A71AB Track not present in AccurateRip database Copy OK

Track 5

Filename C:\Users\SPFreak\Desktop\Uncle Acid and the Deadbeats-Vol.1-Flac\Uncle Acid and the Deadbeats-05-Vampire Circus.wav

Peak level 58.7 % Extraction speed 3.7 X Track quality 99.9 % Test CRC FC9F689D Copy CRC FC9F689D Track not present in AccurateRip database Copy OK

Track 6

Filename C:\Users\SPFreak\Desktop\Uncle Acid and the Deadbeats-Vol.1-Flac\Uncle Acid and the Deadbeats-06-Do What Your Love Tells You.wav

Peak level 45.2 % Extraction speed 4.3 X Track quality 100.0 % Test CRC B3B4BE8A Copy CRC B3B4BE8A Track not present in AccurateRip database Copy OK

Track 7

Filename C:\Users\SPFreak\Desktop\Uncle Acid and the Deadbeats-Vol.1-Flac\Uncle Acid and the Deadbeats-07-I Don't Know.wav

Peak level 42.2 % Extraction speed 3.8 X Track quality 100.0 % Test CRC 4C41EE94 Copy CRC 4C41EE94 Track not present in AccurateRip database Copy OK

Track 8

Filename C:\Users\SPFreak\Desktop\Uncle Acid and the Deadbeats-Vol.1-Flac\Uncle Acid and the Deadbeats-08-Wind Up Toys.wav

Peak level 32.4 % Extraction speed 4.2 X Track quality 100.0 % Test CRC 93A1140C Copy CRC 93A1140C Track not present in AccurateRip database Copy OK

None of the tracks are present in the AccurateRip database

No errors occurred

End of status report

---- CUETools DB Plugin V2.1.3

[CTDB TOCID: HIT6OsSXZmoL.nK142Zr9hxhlSc-] disk not present in database, Submit result: HIT6OsSXZmoL.nK142Zr9hxhlSc- has been uploaded

==== Log checksum 3FE1DEFDDFFB44D8A5659863EB22C95ECDE6653DFFC821969E9098D908305FE4 ====

------------------------------------------------------------

Exact Audio Copy V1.0 beta 3 from 29. August 2011

EAC extraction logfile from 26. June 2012, 13:48

Uncle Acid and the Deadbeats / Vol 1

Used drive : SlimtypeDVD A DS8A5SH Adapter: 1 ID: 0

Read mode : SecureUtilize accurate stream : YesDefeat audio cache : YesMake use of C2 pointers : No

Read offset correction : 6Overread into Lead-In and Lead-Out : NoFill up missing offset samples with silence : YesDelete leading and trailing silent blocks : NoNull samples used in CRC calculations : YesUsed interface : Native Win32 interface for Win NT & 2000Gap handling : Appended to previous track

Used output format : User Defined EncoderSelected bitrate : 1024 kBit/sQuality : HighAdd ID3 tag : YesCommand line compressor : C:\Program Files (x86)\Exact Audio Copy\Flac\flac.exeAdditional command line options : -8 -V -T "ARTIST=%artist%" -T "TITLE=%title%" -T "ALBUM=%albumtitle%" -T "DATE=%year%" -T "TRACKNUMBER=%tracknr%" -T "GENRE=%genre%" -T "PERFORMER=%albuminterpret%" -T "COMPOSER=%composer%" %haslyrics%--tag-from-file=LYRICS="%lyricsfile%"%haslyrics% -T "ALBUMARTIST=%albumartist%" -T "DISCNUMBER=%cdnumber%" -T "TOTALDISCS=%totalcds%" -T "TOTALTRACKS=%numtracks%" -T "COMMENT=%comment%" %source% -o %dest%

TOC of the extracted CD

Track | Start | Length | Start sector | End sector --------------------------------------------------------- 1 | 0:00.00 | 3:38.17 | 0 | 16366 2 | 3:38.17 | 4:06.61 | 16367 | 34877 3 | 7:45.03 | 6:36.02 | 34878 | 64579 4 | 14:21.05 | 3:56.02 | 64580 | 82281 5 | 18:17.07 | 8:02.56 | 82282 | 118487 6 | 26:19.63 | 5:36.41 | 118488 | 143728 7 | 31:56.29 | 7:49.69 | 143729 | 178972 8 | 39:46.23 | 5:18.21 | 178973 | 202843

Track 1

Filename C:\Users\SPFreak\Desktop\Uncle Acid and the Deadbeats-Vol.1-Flac\Uncle Acid and the Deadbeats-01-Crystal Spiders.wav

Pre-gap length 0:00:02.00

Peak level 26.2 % Extraction speed 2.8 X Track quality 100.0 % Test CRC 780D14ED Copy CRC 780D14ED Track not present in AccurateRip database Copy OK

Track 2

Filename C:\Users\SPFreak\Desktop\Uncle Acid and the Deadbeats-Vol.1-Flac\Uncle Acid and the Deadbeats-02-Witches Garden.wav

Peak level 42.6 % Extraction speed 3.0 X Track quality 100.0 % Test CRC DD9D7F77 Copy CRC DD9D7F77 Track not present in AccurateRip database Copy OK

Track 3

Filename C:\Users\SPFreak\Desktop\Uncle Acid and the Deadbeats-Vol.1-Flac\Uncle Acid and the Deadbeats-03-Dead Eyes Of London.wav

Peak level 50.0 % Extraction speed 3.6 X Track quality 100.0 % Test CRC 5D74C89C Copy CRC 5D74C89C Track not present in AccurateRip database Copy OK

Track 4

Filename C:\Users\SPFreak\Desktop\Uncle Acid and the Deadbeats-Vol.1-Flac\Uncle Acid and the Deadbeats-04-Lonely And Strange.wav

Peak level 30.8 % Extraction speed 3.0 X Track quality 99.9 % Test CRC 278A71AB Copy CRC 278A71AB Track not present in AccurateRip database Copy OK

Track 5

Filename C:\Users\SPFreak\Desktop\Uncle Acid and the Deadbeats-Vol.1-Flac\Uncle Acid and the Deadbeats-05-Vampire Circus.wav

Peak level 58.7 % Extraction speed 3.7 X Track quality 99.9 % Test CRC FC9F689D Copy CRC FC9F689D Track not present in AccurateRip database Copy OK

Track 6

Filename C:\Users\SPFreak\Desktop\Uncle Acid and the Deadbeats-Vol.1-Flac\Uncle Acid and the Deadbeats-06-Do What Your Love Tells You.wav

Peak level 45.2 % Extraction speed 4.3 X Track quality 100.0 % Test CRC B3B4BE8A Copy CRC B3B4BE8A Track not present in AccurateRip database Copy OK

Track 7

Filename C:\Users\SPFreak\Desktop\Uncle Acid and the Deadbeats-Vol.1-Flac\Uncle Acid and the Deadbeats-07-I Don't Know.wav

Peak level 42.2 % Extraction speed 3.8 X Track quality 100.0 % Test CRC 4C41EE94 Copy CRC 4C41EE94 Track not present in AccurateRip database Copy OK

Track 8

Filename C:\Users\SPFreak\Desktop\Uncle Acid and the Deadbeats-Vol.1-Flac\Uncle Acid and the Deadbeats-08-Wind Up Toys.wav

Peak level 32.4 % Extraction speed 4.2 X Track quality 100.0 % Test CRC 93A1140C Copy CRC 93A1140C Track not present in AccurateRip database Copy OK

None of the tracks are present in the AccurateRip database

No errors occurred

End of status report

---- CUETools DB Plugin V2.1.3

[CTDB TOCID: HIT6OsSXZmoL.nK142Zr9hxhlSc-] disk not present in database, Submit result: HIT6OsSXZmoL.nK142Zr9hxhlSc- has been uploaded

==== Log checksum 3FE1DEFDDFFB44D8A5659863EB22C95ECDE6653DFFC821969E9098D908305FE4 ====
REM DATE 2010REM DISCID 720A9008REM COMMENT "ExactAudioCopy v1.0b3"PERFORMER "Uncle Acid and the Deadbeats"TITLE "Vol 1"FILE "Uncle Acid and the Deadbeats-01-Crystal Spiders.wav" WAVE TRACK 01 AUDIO TITLE "Crystal Spiders" PERFORMER "Uncle Acid and the Deadbeats" INDEX 01 00:00:00FILE "Uncle Acid and the Deadbeats-02-Witches Garden.wav" WAVE TRACK 02 AUDIO TITLE "Witches Garden" PERFORMER "Uncle Acid and the Deadbeats" INDEX 01 00:00:00FILE "Uncle Acid and the Deadbeats-03-Dead Eyes Of London.wav" WAVE TRACK 03 AUDIO TITLE "Dead Eyes Of London" PERFORMER "Uncle Acid and the Deadbeats" INDEX 01 00:00:00FILE "Uncle Acid and the Deadbeats-04-Lonely And Strange.wav" WAVE TRACK 04 AUDIO TITLE "Lonely And Strange" PERFORMER "Uncle Acid and the Deadbeats" INDEX 01 00:00:00FILE "Uncle Acid and the Deadbeats-05-Vampire Circus.wav" WAVE TRACK 05 AUDIO TITLE "Vampire Circus" PERFORMER "Uncle Acid and the Deadbeats" INDEX 01 00:00:00FILE "Uncle Acid and the Deadbeats-06-Do What Your Love Tells You.wav" WAVE TRACK 06 AUDIO TITLE "Do What Your Love Tells You" PERFORMER "Uncle Acid and the Deadbeats" INDEX 01 00:00:00FILE "Uncle Acid and the Deadbeats-07-I Don't Know.wav" WAVE TRACK 07 AUDIO TITLE "I Don't Know" PERFORMER "Uncle Acid and the Deadbeats" INDEX 01 00:00:00FILE "Uncle Acid and the Deadbeats-08-Wind Up Toys.wav" WAVE TRACK 08 AUDIO TITLE "Wind Up Toys" PERFORMER "Uncle Acid and the Deadbeats" INDEX 01 00:00:00
AUDIOCHECKER v2.0 beta (build 457) - by Dester - <a href="mailto:opdester@freemail.hu" class="postLink">opdester@freemail.hu</a>~~~~~~~~~~~~~~~~~~~~~~~~~~~~~~~~~~-=== НЕ РЕДАКТИРУЙТЕ ЭТОТ ФАЙЛ! ===-

Путь: ...\2010 - Vol. 1 [Killer Candy Rec., none]

1 -=- Uncle Acid and the Deadbeats-01-Crystal Spiders.flac -=- MPEG (95%)2 -=- Uncle Acid and the Deadbeats-02-Witches Garden.flac -=- MPEG (95%)3 -=- Uncle Acid and the Deadbeats-03-Dead Eyes Of London.flac -=- MPEG (95%)4 -=- Uncle Acid and the Deadbeats-04-Lonely And Strange.flac -=- MPEG (95%)5 -=- Uncle Acid and the Deadbeats-05-Vampire Circus.flac -=- MPEG (95%)6 -=- Uncle Acid and the Deadbeats-06-Do What Your Love Tells You.flac -=- MPEG (95%)7 -=- Uncle Acid and the Deadbeats-07-I Don't Know.flac -=- MPEG (95%)8 -=- Uncle Acid and the Deadbeats-08-Wind Up Toys.flac -=- MPEG (95%)

Сводка 5,00% CDDA

118809652
[CUETools log; Date: 30.11.2012 1:16:52; Version: 2.1.4][CTDB TOCID: HIT6OsSXZmoL.nK142Zr9hxhlSc-] found.Track | CTDB Status 1 | (1/1) Accurately ripped 2 | (1/1) Accurately ripped 3 | (1/1) Accurately ripped 4 | (1/1) Accurately ripped 5 | (1/1) Accurately ripped 6 | (1/1) Accurately ripped 7 | (1/1) Accurately ripped 8 | (1/1) Accurately ripped[AccurateRip ID: 000cd99d-00583806-720a9008] disk not present in database.

Track Peak [ CRC32 ] [W/O NULL] [ LOG ] -- 58,7 [AFB3592B] [3521B5E6] 01 26,2 [780D14ED] [1D36D3C1] CRC32 02 42,6 [DD9D7F77] [8B2964FC] CRC32 03 50,0 [5D74C89C] [A8F07E81] CRC32 04 30,8 [278A71AB] [8D4616AF] CRC32 05 58,7 [FC9F689D] [541B5535] CRC32 06 45,2 [B3B4BE8A] [CD0EB3DB] CRC32 07 42,2 [4C41EE94] [71E31008] CRC32 08 32,4 [93A1140C] [82E0DF63] CRC32
01. I'll Cut You Down (05:03)
02. Death's Door (07:22)
03. Over & Over Again (03:23)
04. Curse In The Trees (04:42)
05. I'm Here To Kill You (03:43)
06. 13 Candles (07:05)
07. Ritual Knife (04:46)
08. Withered Hand Of Evil (06:23)
09. Down To The Fire (06:18)

MusicBrainz.org
Exact Audio Copy V1.0 beta 2 from 29. April 2011

EAC extraction logfile from 8. September 2011, 10:38

Uncle Acid & The Deadbeats / Blood Lust

Used drive : Optiarc DVD RW AD-7580S Adapter: 1 ID: 0

Read mode : SecureUtilize accurate stream : YesDefeat audio cache : YesMake use of C2 pointers : No

Read offset correction : 6Overread into Lead-In and Lead-Out : NoFill up missing offset samples with silence : YesDelete leading and trailing silent blocks : NoNull samples used in CRC calculations : YesUsed interface : Native Win32 interface for Win NT & 2000Gap handling : Appended to previous track

Used output format : User Defined EncoderSelected bitrate : 128 kBit/sQuality : HighAdd ID3 tag : NoCommand line compressor : C:\Program Files\Exact Audio Copy\Flac\flac.exeAdditional command line options : -8 -V -T "ARTIST=%artist%" -T "TITLE=%title%" -T "ALBUM=%albumtitle%" -T "DATE=%year%" -T "TRACKNUMBER=%tracknr%" -T "GENRE=%genre%" -T "PERFORMER=%albuminterpret%" -T "COMPOSER=%composer%" %haslyrics%--tag-from-file=LYRICS

TOC of the extracted CD

Track | Start | Length | Start sector | End sector --------------------------------------------------------- 1 | 0:00.00 | 5:02.67 | 0 | 22716 2 | 5:02.67 | 7:21.15 | 22717 | 55806 3 | 12:24.07 | 3:22.52 | 55807 | 71008 4 | 15:46.59 | 4:41.46 | 71009 | 92129 5 | 20:28.30 | 3:42.46 | 92130 | 108825 6 | 24:11.01 | 7:04.33 | 108826 | 140658 7 | 31:15.34 | 4:45.58 | 140659 | 162091 8 | 36:01.17 | 6:22.45 | 162092 | 190786 9 | 42:23.62 | 6:17.47 | 190787 | 219108

Track 1

Filename C:\EAC Rips\01 - I'll Cut You Down.wav

Pre-gap length 0:00:02.00

Peak level 100.0 % Extraction speed 3.0 X Track quality 100.0 % Test CRC 202A7EE4 Copy CRC 202A7EE4 Track not present in AccurateRip database Copy OK

Track 2

Filename C:\EAC Rips\02 - Death's Door.wav

Peak level 79.0 % Extraction speed 3.2 X Track quality 99.9 % Test CRC CB767F5D Copy CRC CB767F5D Track not present in AccurateRip database Copy OK

Track 3

Filename C:\EAC Rips\03 - Over & Over Again.wav

Peak level 87.1 % Extraction speed 3.6 X Track quality 100.0 % Test CRC E7DF8A35 Copy CRC E7DF8A35 Track not present in AccurateRip database Copy OK

Track 4

Filename C:\EAC Rips\04 - Curse In The Trees.wav

Peak level 77.0 % Extraction speed 4.0 X Track quality 100.0 % Test CRC 60F2580A Copy CRC 60F2580A Track not present in AccurateRip database Copy OK

Track 5

Filename C:\EAC Rips\05 - I'm Here To Kill You.wav

Peak level 87.1 % Extraction speed 4.0 X Track quality 100.0 % Test CRC F8DD1787 Copy CRC F8DD1787 Track not present in AccurateRip database Copy OK

Track 6

Filename C:\EAC Rips\06 - 13 Candles.wav

Peak level 81.0 % Extraction speed 4.6 X Track quality 100.0 % Test CRC 65234C58 Copy CRC 65234C58 Track not present in AccurateRip database Copy OK

Track 7

Filename C:\EAC Rips\07 - Ritual Knife.wav

Peak level 79.0 % Extraction speed 4.7 X Track quality 100.0 % Test CRC 9FD7529F Copy CRC 9FD7529F Track not present in AccurateRip database Copy OK

Track 8

Filename C:\EAC Rips\08 - Withered Hand Of Evil.wav

Peak level 93.4 % Extraction speed 5.0 X Track quality 100.0 % Test CRC C54056DE Copy CRC C54056DE Track not present in AccurateRip database Copy OK

Track 9

Filename C:\EAC Rips\09 - Untitled.wav

Peak level 100.0 % Extraction speed 5.3 X Track quality 100.0 % Test CRC 67103FA4 Copy CRC 67103FA4 Track not present in AccurateRip database Copy OK

None of the tracks are present in the AccurateRip database

No errors occurred

End of status report

==== Log checksum BC0AE1D623CF555985E860558B9699E0C5F37AE12EC9BA47E0161CDD15F2A1E4 ====
REM GENRE "Psychedelic Rock"REM DATE 2011REM DISCID 750B6909REM COMMENT "ExactAudioCopy v1.0b2"FILE "01 - I'll Cut You Down.wav" WAVE TRACK 01 AUDIO INDEX 01 00:00:00FILE "02 - Death's Door.wav" WAVE TRACK 02 AUDIO INDEX 01 00:00:00FILE "03 - Over & Over Again.wav" WAVE TRACK 03 AUDIO INDEX 01 00:00:00FILE "04 - Curse In The Trees.wav" WAVE TRACK 04 AUDIO INDEX 01 00:00:00FILE "05 - I'm Here To Kill You.wav" WAVE TRACK 05 AUDIO INDEX 01 00:00:00FILE "06 - 13 Candles.wav" WAVE TRACK 06 AUDIO INDEX 01 00:00:00FILE "07 - Ritual Knife.wav" WAVE TRACK 07 AUDIO INDEX 01 00:00:00FILE "08 - Withered Hand Of Evil.wav" WAVE TRACK 08 AUDIO INDEX 01 00:00:00FILE "09 - Untitled.wav" WAVE TRACK 09 AUDIO INDEX 01 00:00:00
AUDIOCHECKER v2.0 beta (build 457) - by Dester - <a href="mailto:opdester@freemail.hu" class="postLink">opdester@freemail.hu</a>~~~~~~~~~~~~~~~~~~~~~~~~~~~~~~~~~~-=== НЕ РЕДАКТИРУЙТЕ ЭТОТ ФАЙЛ! ===-

Путь: ...\Uncle Acid And The Deadbeats - 2011 - Blood Lust [FLAC]

1 -=- 01 - I'll Cut You Down.flac -=- MPEG (95%)2 -=- 02 - Death's Door.flac -=- CDDA (100%)3 -=- 03 - Over & Over Again.flac -=- CDDA (100%)4 -=- 04 - Curse In The Trees.flac -=- CDDA (100%)5 -=- 05 - I'm Here To Kill You.flac -=- CDDA (100%)6 -=- 06 - 13 Candles.flac -=- CDDA (100%)7 -=- 07 - Ritual Knife.flac -=- CDDA (100%)8 -=- 08 - Withered Hand Of Evil.flac -=- CDDA (100%)9 -=- 09 - Untitled.flac -=- CDDA (100%)

Сводка 89,44% CDDA

47814372
[CUETools log; Date: 30.11.2012 1:17:32; Version: 2.1.4][CTDB TOCID: 4eoRE1zrM5UL6CAVegZ_FOWYmfY-] found.Track | CTDB Status 1 | (3/3) Accurately ripped 2 | (3/3) Accurately ripped 3 | (3/3) Accurately ripped 4 | (3/3) Accurately ripped 5 | (3/3) Accurately ripped 6 | (3/3) Accurately ripped 7 | (3/3) Accurately ripped 8 | (2/3) Accurately ripped 9 | (3/3) Accurately ripped[AccurateRip ID: 001038e0-007704d4-750b6909] found.Track [ CRC | V2 ] Status 01 [2266a0f2|5b865f6d] (0+0/5) No match 02 [8da374c6|90745f9a] (0+0/5) No match 03 [1ed8c7c5|805a513e] (0+0/5) No match 04 [0c6b7128|8aabe5fe] (0+0/5) No match 05 [60c8be35|3dfc6c6d] (0+0/5) No match 06 [b4c3b6b2|815cc3e2] (0+0/5) No match 07 [28687469|dc684a13] (0+0/5) No match 08 [0beb3a56|bf2d588c] (0+0/5) No match 09 [77432872|ff8b99d9] (0+0/0) No matchOffsetted by 126: 01 [7cfccd6d] (3/5) Accurately ripped 02 [fb943d60] (3/5) Accurately ripped 03 [120bf3bd] (3/5) Accurately ripped 04 [6972e300] (3/5) Accurately ripped 05 [10581125] (3/5) Accurately ripped 06 [e447a438] (3/5) Accurately ripped 07 [831d6311] (3/5) Accurately ripped 08 [89ce1dac] (3/5) Accurately ripped 09 [a8127080] (0/0) No match

Track Peak [ CRC32 ] [W/O NULL] [ LOG ] -- 100,0 [BAAE7AC1] [9A8BAD44] 01 100,0 [202A7EE4] [C5021C28] CRC32 02 79,0 [CB767F5D] [6E75EF6E] CRC32 03 87,1 [E7DF8A35] [C9B664E4] CRC32 04 77,0 [60F2580A] [1850A1F1] CRC32 05 87,1 [F8DD1787] [82CF0467] CRC32 06 81,0 [65234C58] [A9B8E6B7] CRC32 07 79,0 [9FD7529F] [1673FB01] CRC32 08 93,4 [C54056DE] [D1BC5E31] CRC32 09 100,0 [67103FA4] [9EA5D48D] CRC32

Перед скачивание - смотрите на логи Аудиочекера! Особенно это касается первого альбома! Таковы, видимо исходные материалы у коллектива и ничего тут не поделаешь.
Arriving at an abandoned barn beneath a dead summer sky, Uncle Acid sets up his crackling vintage tweed amp. Nestled between bales of hay he sings tales of murder, lust and horror. He is soon joined by two female deadbeats he met hitchhiking. Playing on battered old pawn shop instruments, the trio record their tales onto a broken 8 track tape machine. A strange dynamic appears within the band, as Acid reveals himself as leader and controller of minds. The band has now taken over the barn. Illegal electricity powers old televisions and amplifiers. Old horror films play constantly as the trio delve deeper into a strange understanding based on drugs, lust and control. The music continues…
Uncle Acid - Guitars, Organ, Vocals
Kat - Bass
Red - Drums


Трекер:  [ 09-Дек-2012 15:13 ]

  

Скачать .torrent

Размер .torrent файла 14 KB


Размер: 549 MB
Хэш (hash) релиза: 6356875d27e9d1ba1773a612c41bedd926df1f3f

Торренты, похожие на Uncle Acid & The Deadbeats - Vol. 1; Blood lust скачать торрент

Форум Название Автор Размер S L Добавлен
Зарубежный Rock ·· (Stoner rock, Psychedelic rock) Uncle Acid & The Deadbeats - Vol. 1; Blood lust (2 альбома) - 2010, 2011, MP3, 320 kbps Galfimbul 227963240217 MB 0 0 1355110860

06:41

10-Дек-12

Еще никто не оставлял запись к записи скачать торрент Uncle Acid & The Deadbeats - Vol. 1; Blood lust . Будь первым!

!Обратная связь