Скачать через торрент музыку Frank Zappa - Guitar бесплатно без регистрации torrent

Если у вас наблюдаются проблемы со скриншотами, переходом по ссылками, скачиванием торрентов - проблемы в блокировщике рекламы AdBlock. #хорошегоДня!


Статистика раздачи
Размер:  877 MB   |    Зарегистрирован:  4 года 11 месяцев   |    .torrent скачан:  18 раз   |   
Раздают:  1  
   
Загрузка...
 
Автор Сообщение

Galfimbul

avatar Galfimbul


Frank Zappa / Guitar (2012)

Жанр: Avant-rock
Страна-производитель диска: US
Год издания: 2012
Издатель (лейбл): Zappa Records
Номер по каталогу: ZR 3876
Страна: US
Аудиокодек: FLAC (*.flac)
Тип рипа: image+.cue
Битрейт аудио: lossless
Продолжительность: 1:08:25+1:03:48
Источник (релизер): собственный рип с фирменного диска
Наличие сканов в содержимом раздачи: да
Треклист:
Disc One:
1. Sexual Harassment In The Workplace 3:43
2. Which One Is It? 3:05
3. Republicans 5:08
4. Do Not Pass Go 3:37
5. Chalk Pie 4:52
6. In-A-Gadda-Stravinsky 2:50
7. That's Not Really Reggae 3:17
8. When No One Was No One 4:49
9. One Again, Without The Net 3:44
10. Outside Now (Original Solo) 5:28
11. Jim & Tammy's Upper Room 3:12
12. Were We Ever Really Safe In San Antonio? 2:50
13. That Ol' G Minor Thing Again 5:02
14. Hotel Atlanta Incidentals 2:44
15. That's Not Really A Shuffle 4:24
16. Move It Or Park It 5:44
17. Sunrise Redeemer 3:58

Disc Two:
1. Variations On Sinister #3 5:16
2. Orrin Hatch On Skis 2:12
3. But Who Was Fulcanelli? 2:49
4. For Duane 3:25
5. GOA 4:51
6. Winos Do Not March 3:14
7. Swans? What Swans? 4:24
8. Too Ugly For Show Business 4:20
9. Systems Of Edges 5:32
10. Do Not Try This At Home 3:50
11. Things That Look Like Meat 6:54
12. Watermelon In Easter Hay 4:03
13. Canadian Customs 3:35
14. Is That All There Is? 4:08
15. It Ain't Necessarily The Saint James Infirmary 5:14
Exact Audio Copy V1.0 beta 3 from 29. August 2011

EAC extraction logfile from 24. November 2012, 18:30

Frank Zappa / Guitar

Used drive : MATSHITADVD-RAM UJ-860S Adapter: 1 ID: 0

Read mode : SecureUtilize accurate stream : YesDefeat audio cache : YesMake use of C2 pointers : No

Read offset correction : 102Overread into Lead-In and Lead-Out : NoFill up missing offset samples with silence : YesDelete leading and trailing silent blocks : NoNull samples used in CRC calculations : YesUsed interface : Native Win32 interface for Win NT & 2000

Used output format : User Defined EncoderSelected bitrate : 128 kBit/sQuality : HighAdd ID3 tag : NoCommand line compressor : C:\Program Files\Exact Audio Copy\Flac\flac.exeAdditional command line options : -V -8 -T "Date=%year%" -T "Genre=%genre%" %source%

TOC of the extracted CD

Track | Start | Length | Start sector | End sector --------------------------------------------------------- 1 | 0:00.00 | 3:42.74 | 0 | 16723 2 | 3:42.74 | 3:04.60 | 16724 | 30583 3 | 6:47.59 | 5:07.66 | 30584 | 53674 4 | 11:55.50 | 3:37.01 | 53675 | 69950 5 | 15:32.51 | 4:52.01 | 69951 | 91851 6 | 20:24.52 | 2:49.44 | 91852 | 104570 7 | 23:14.21 | 3:16.63 | 104571 | 119333 8 | 26:31.09 | 4:49.03 | 119334 | 141011 9 | 31:20.12 | 3:43.39 | 141012 | 157775 10 | 35:03.51 | 5:28.20 | 157776 | 182395 11 | 40:31.71 | 3:11.68 | 182396 | 196788 12 | 43:43.64 | 2:49.41 | 196789 | 209504 13 | 46:33.30 | 5:02.24 | 209505 | 232178 14 | 51:35.54 | 2:44.03 | 232179 | 244481 15 | 54:19.57 | 4:23.73 | 244482 | 264279 16 | 58:43.55 | 5:43.39 | 264280 | 290043 17 | 64:27.19 | 3:58.30 | 290044 | 307923

Range status and errors

Selected range

Filename C:\FZ\1988-#50.Guitar\CD1\CD.wav

Peak level 100.0 % Extraction speed 2.6 X Range quality 100.0 % Test CRC F7184123 Copy CRC F7184123 Copy OK

No errors occurred

AccurateRip summary

Track 1 not present in databaseTrack 2 not present in databaseTrack 3 not present in databaseTrack 4 not present in databaseTrack 5 not present in databaseTrack 6 not present in databaseTrack 7 not present in databaseTrack 8 not present in databaseTrack 9 not present in databaseTrack 10 not present in databaseTrack 11 not present in databaseTrack 12 not present in databaseTrack 13 not present in databaseTrack 14 not present in databaseTrack 15 not present in databaseTrack 16 not present in databaseTrack 17 not present in database

None of the tracks are present in the AccurateRip database

End of status report

==== Log checksum 36A7ED63C7B7AEBFA654EF1F9A527DA0D846A07A930A7F9F6E4E7B692C81B710 ====
Exact Audio Copy V1.0 beta 3 from 29. August 2011

EAC extraction logfile from 24. November 2012, 19:26

Frank Zappa / Guitar

Used drive : MATSHITADVD-RAM UJ-860S Adapter: 1 ID: 0

Read mode : SecureUtilize accurate stream : YesDefeat audio cache : YesMake use of C2 pointers : No

Read offset correction : 102Overread into Lead-In and Lead-Out : NoFill up missing offset samples with silence : YesDelete leading and trailing silent blocks : NoNull samples used in CRC calculations : YesUsed interface : Native Win32 interface for Win NT & 2000

Used output format : User Defined EncoderSelected bitrate : 128 kBit/sQuality : HighAdd ID3 tag : NoCommand line compressor : C:\Program Files\Exact Audio Copy\Flac\flac.exeAdditional command line options : -V -8 -T "Date=%year%" -T "Genre=%genre%" %source%

TOC of the extracted CD

Track | Start | Length | Start sector | End sector --------------------------------------------------------- 1 | 0:00.00 | 5:16.16 | 0 | 23715 2 | 5:16.16 | 2:12.24 | 23716 | 33639 3 | 7:28.40 | 2:48.63 | 33640 | 46302 4 | 10:17.28 | 3:24.55 | 46303 | 61657 5 | 13:42.08 | 4:51.14 | 61658 | 83496 6 | 18:33.22 | 3:14.33 | 83497 | 98079 7 | 21:47.55 | 4:23.62 | 98080 | 117866 8 | 26:11.42 | 4:20.00 | 117867 | 137366 9 | 30:31.42 | 5:32.01 | 137367 | 162267 10 | 36:03.43 | 3:50.11 | 162268 | 179528 11 | 39:53.54 | 6:54.32 | 179529 | 210610 12 | 46:48.11 | 4:02.49 | 210611 | 228809 13 | 50:50.60 | 3:35.19 | 228810 | 244953 14 | 54:26.04 | 4:08.32 | 244954 | 263585 15 | 58:34.36 | 5:14.10 | 263586 | 287145

Range status and errors

Selected range

Filename C:\FZ\1988-#50.Guitar\CD2\CD.wav

Peak level 100.0 % Extraction speed 2.6 X Range quality 99.9 % Test CRC 17B8EB4B Copy CRC 17B8EB4B Copy OK

No errors occurred

AccurateRip summary

Track 1 not present in databaseTrack 2 not present in databaseTrack 3 not present in databaseTrack 4 not present in databaseTrack 5 not present in databaseTrack 6 not present in databaseTrack 7 not present in databaseTrack 8 not present in databaseTrack 9 not present in databaseTrack 10 not present in databaseTrack 11 not present in databaseTrack 12 not present in databaseTrack 13 not present in databaseTrack 14 not present in databaseTrack 15 not present in database

None of the tracks are present in the AccurateRip database

End of status report

==== Log checksum 89D753881B6292E4FEACD86BEC5A7F5D159F59DD2F9E64A95C4033E29D61F858 ====


Трекер:  [ 09-Дек-2012 15:13 ]

  

Скачать .torrent

Размер .torrent файла 35 KB


Размер: 877 MB
Хэш (hash) релиза: 1dd213a0c81e1b5d3b08289bda9688fdd055948b

Торренты, похожие на Frank Zappa - Guitar скачать торрент

Форум Название Автор Размер S L Добавлен
Зарубежный Rock ·· (Progressive Rock, Fusion, Guitar Virtuoso) Frank Zappa - Shut Up 'N Play Yer Guitar (2CD, 2012 Remaster) - 1981, FLAC (tracks+.cue), lossless Galfimbul 727450283694 MB 0 0 1349623800

18:30

7-Окт-12

Rосk | Mеtаl | Аltеrnаtivе, Рunk, Indереndеnt (losslеss) ·· (Guitar, Avangarde, Jazz, Fusion) Frank Zappa - Shut Up 'N Play Yer Guitar - 1981 (1995 remastered 3CD) - 1995, FLAC (image+.cue) lossless Galfimbul 749509410715 MB 0 0 1297859403

15:30

16-Фев-11

Еще никто не оставлял запись к записи скачать торрент Frank Zappa - Guitar . Будь первым!

!Обратная связь