Скачать через торрент музыку Rocky Sharpe And The Razors - So Hard To Laugh - 1976, FLAC бесплатно без регистрации torrent

Если у вас наблюдаются проблемы со скриншотами, переходом по ссылками, скачиванием торрентов - проблемы в блокировщике рекламы AdBlock. #хорошегоДня!


Статистика раздачи
Размер:  211 MB   |    Зарегистрирован:  4 года 8 месяцев   |    .torrent скачан:  17 раз   |   
Раздают:  1  
   
Загрузка...
 
Автор Сообщение

Galfimbul

avatar Galfimbul


Rocky Sharpe And The Razors / So Hard To Laugh

Жанр: Doo-Wop/Shoo-Wop/Rock'n'Roll
Страна-производитель диска: UK
Год издания: 1976 (1993)
Издатель (лейбл): Ace Records
Номер по каталогу: CDWIKM116
Страна: UK
Аудиокодек: FLAC (*.flac)
Тип рипа: image+.cue
Битрейт аудио: lossless
Продолжительность: 45:00
Источник (релизер): AUDELAS KINGDOM
Наличие сканов в содержимом раздачи: да

01. I Wonder Why
02. Drip Drop
03. Daddy Cool
04. Devil Or Angel
05. One Summernight
06. So Hard To Laugh, So Easy To Cry
07. What`s Your Name
08. Mathilda
09. Poison Ivy
10. That`s My Desire
11. Pretty Little Angel Eyes
12. As Long As I`m Moving
13. Whole Lotta Shakin` Going On
14. Splish Splash
Exact Audio Copy V1.0 beta 2 from 29. April 2011

Отчёт EAC об извлечении, выполненном 29. ноября 2012, 19:05

Rocky Sharpe And The Razors / So Hard To Laugh

Дисковод: ATAPI iHAS124 B Adapter: 1 ID: 1

Режим чтения : ДостоверностьИспользование точного потока : ДаОтключение кэша аудио : ДаИспользование указателей C2 : Нет

Коррекция смещения при чтении : 6Способность читать области Lead-in и Lead-out : НетЗаполнение пропущенных сэмплов тишиной : ДаУдаление блоков с тишиной в начале и конце : НетПри вычислениях CRC использовались нулевые сэмплы : ДаИнтерфейс : Встроенный Win32-интерфейс для Win NT/2000

Выходной формат : Пользовательский кодировщикВыбранный битрейт : 1024 kBit/sКачество : ВысокийДобавление ID3-тега : НетУтилита сжатия : C:\Program Files\Exact Audio Copy\FLAC\FLAC.EXEДополнительные параметры : -6 -V -T "ARTIST=%artist%" -T "TITLE=%title%" -T "ALBUM=%albumtitle%" -T "DATE=%year%" -T "TRACKNUMBER=%tracknr%" -T "GENRE=%genre%" -T "COMMENT=%comment%" -T "BAND=%albuminterpret%" -T "COMPOSER=%composer%" %haslyrics%--tag-from-

TOC извлечённого CD

Трек | Старт | Длительность | Начальный сектор | Конечный сектор --------------------------------------------------------------------- 1 | 0:00.33 | 1:57.05 | 33 | 8812 2 | 1:57.38 | 2:19.17 | 8813 | 19254 3 | 4:16.55 | 2:40.28 | 19255 | 31282 4 | 6:57.08 | 2:15.22 | 31283 | 41429 5 | 9:12.30 | 2:02.20 | 41430 | 50599 6 | 11:14.50 | 2:27.68 | 50600 | 61692 7 | 13:42.43 | 2:06.50 | 61693 | 71192 8 | 15:49.18 | 2:59.45 | 71193 | 84662 9 | 18:48.63 | 2:25.20 | 84663 | 95557 10 | 21:14.08 | 3:01.65 | 95558 | 109197 11 | 24:15.73 | 2:33.60 | 109198 | 120732 12 | 26:49.58 | 2:27.70 | 120733 | 131827 13 | 29:17.53 | 2:26.05 | 131828 | 142782 14 | 31:43.58 | 1:58.10 | 142783 | 151642

Характеристики диапазона извлечения и сообщения об ошибках

Выбранный диапазон

Имя файла D:\Muzika\Rocky Sharpe And The Razors - So Hard To Laugh (1976)\Rocky Sharpe And The Razors - So Hard To Laugh.wav

Пиковый уровень 94.2 % Скорость извлечения 7.2 X Качество диапазона 99.9 % CRC теста B8D8C1A7 CRC копии B8D8C1A7 Копирование... OK

Ошибок не произошло

Конец отчёта

==== Контрольная сумма отчёта 77BC5D0CF3BEDE664C94F23CB4726F99F52A360FBD5C1A255F54FF1C955C40C8 ====


Трекер:  [ 09-Дек-2012 15:12 ]

  

Скачать .torrent

Размер .torrent файла 17 KB


Размер: 211 MB
Хэш (hash) релиза: 407aa38d20138d8a20c76c911a4d0c684786419d

Еще никто не оставлял запись к записи скачать торрент Rocky Sharpe And The Razors - So Hard To Laugh - 1976, FLAC . Будь первым!

!Обратная связь