Скачать через торрент музыку The Brian Setzer Orchestra - Rock This Town бесплатно без регистрации torrent

Если у вас наблюдаются проблемы со скриншотами, переходом по ссылками, скачиванием торрентов - проблемы в блокировщике рекламы AdBlock. #хорошегоДня!


Статистика раздачи
Размер:  111 MB   |    Зарегистрирован:  4 года 8 месяцев   |    .torrent скачан:  5 раз   |   
Раздают:  1  
   
Загрузка...
 
Автор Сообщение

Galfimbul

avatar Galfimbul


The Brian Setzer Orchestra / Rock This Town

Жанр: Neo Rockabilly
Страна-производитель диска: EU
Год издания: 1999
Издатель (лейбл): Interscope Records Inc.
Номер по каталогу: 497 082-2
Страна: USA
Аудиокодек: FLAC (*.flac)
Тип рипа: image+.cue
Битрейт аудио: lossless
Продолжительность: 15:05
Источник (релизер): AUDELAS KINGDOM
Наличие сканов в содержимом раздачи: да

01. Rock This Town (Radio Edit)
02. Rock This Town
03. Rock This Town (The Brian Setzer Orchestra w/Bryan Adams)


Доп. информация: http://www.youtube.com/watch?v=Z0FlWrd6dSQ
Exact Audio Copy V1.0 beta 2 from 29. April 2011

Отчёт EAC об извлечении, выполненном 29. ноября 2012, 21:43

The Brian Setzer Orchestra / Rock This Town

Дисковод: ATAPI iHAS124 B Adapter: 1 ID: 1

Режим чтения : ДостоверностьИспользование точного потока : ДаОтключение кэша аудио : ДаИспользование указателей C2 : Нет

Коррекция смещения при чтении : 6Способность читать области Lead-in и Lead-out : НетЗаполнение пропущенных сэмплов тишиной : ДаУдаление блоков с тишиной в начале и конце : НетПри вычислениях CRC использовались нулевые сэмплы : ДаИнтерфейс : Встроенный Win32-интерфейс для Win NT/2000

Выходной формат : Пользовательский кодировщикВыбранный битрейт : 1024 kBit/sКачество : ВысокийДобавление ID3-тега : НетУтилита сжатия : C:\Program Files\Exact Audio Copy\FLAC\FLAC.EXEДополнительные параметры : -6 -V -T "ARTIST=%artist%" -T "TITLE=%title%" -T "ALBUM=%albumtitle%" -T "DATE=%year%" -T "TRACKNUMBER=%tracknr%" -T "GENRE=%genre%" -T "COMMENT=%comment%" -T "BAND=%albuminterpret%" -T "COMPOSER=%composer%" %haslyrics%--tag-from-

TOC извлечённого CD

Трек | Старт | Длительность | Начальный сектор | Конечный сектор --------------------------------------------------------------------- 1 | 0:00.00 | 3:18.00 | 0 | 14849 2 | 3:18.00 | 6:38.27 | 14850 | 44726 3 | 9:56.27 | 4:57.58 | 44727 | 67059

Характеристики диапазона извлечения и сообщения об ошибках

Выбранный диапазон

Имя файла D:\Muzika\The Brian Setzer Orchestra - Rock This Town (1999)\The Brian Setzer Orchestra - Rock This Town.wav

Пиковый уровень 99.9 % Скорость извлечения 2.5 X Качество диапазона 100.0 % CRC теста FF8A19CC CRC копии FF8A19CC Копирование... OK

Ошибок не произошло

Конец отчёта

==== Контрольная сумма отчёта EE40D7F97145F7875227F2A6570AFF88EE9B9D3F189B5BC4B9E092BC91DC124D ====


Трекер:  [ 09-Дек-2012 15:12 ]

  

Скачать .torrent

Размер .torrent файла 18 KB


Размер: 111 MB
Хэш (hash) релиза: e1edf53783a39186e9f2d1ee0467f136c1192f0b

Еще никто не оставлял запись к записи скачать торрент The Brian Setzer Orchestra - Rock This Town . Будь первым!

!Обратная связь