Скачать через торрент музыку Rainbow - Long Live Rock n Roll 1978 бесплатно без регистрации torrent

Если у вас наблюдаются проблемы со скриншотами, переходом по ссылками, скачиванием торрентов - проблемы в блокировщике рекламы AdBlock. #хорошегоДня!


Статистика раздачи
Размер:  723 MB   |    Зарегистрирован:  4 года 11 месяцев   |    .torrent скачан:  10 раз   |   
Раздают:  1  
   
Загрузка...
 
Автор Сообщение

Galfimbul

avatar Galfimbul


Rainbow - Long Live Rock 'n' Roll

Жанр: Hard Rock
Страна-производитель диска: EU
Год издания: 1978/2012
Издатель (лейбл): Polydor/Universal
Номер по каталогу: 5340480
Страна: EU
Аудиокодек: WavPack (*.wv)
Тип рипа: image+.cue
Битрейт аудио: lossless
Продолжительность: 56
Источник (релизер): Alder
Наличие сканов в содержимом раздачи: да
01. Long Live Rock 'n' Roll
02. Lady Of The Lake
03. L.A. Connection
04. Gates Of Babylon
05. Kill The King
06. The Shed (Subtle)
07. Sensitive To Light
08. Rainbow Eyes
01. Lady Of The Lake (Rough Mix)
02. Sensitive To Light (Rough Mix)
03. L.A. Connection (Rough Mix)
04. Kill The King (Rough Mix)
05. The Shed (Subtle) (Rough Mix)
06. Long Live Rock 'N' Roll (Rough Mix)
07. Rainbow Eyes (Rough Mix)
08. Long Live Rock 'N' Roll (Shepperton Rehearsal) (take 1)
09. Kill The King (Shepperton Rehearsal)
10. Long Live Rock 'N' Roll (Don Kirshner's Rock Concert)
11. L.A. Connection (Don Kirshner's Rock Concert)
12. Gates Of Babylon (Don Kirshner's Rock Concert)
13. L.A. Connection (Don Kirshner's Rock Concert) (outtake version)
14. Gates Of Babylon (Don Kirshner's Rock Concert) (outtake version)

Exact Audio Copy V1.0 beta 3 from 29. August 2011

EAC extraction logfile from 27. November 2012, 13:11

Rainbow / Long Live Rock 'n' Roll (Deluxe Ed. Cd1 )

Used drive : ATAPI DVD A DH20A3H Adapter: 4 ID: 0

Read mode : SecureUtilize accurate stream : YesDefeat audio cache : YesMake use of C2 pointers : No

Read offset correction : 6Overread into Lead-In and Lead-Out : NoFill up missing offset samples with silence : YesDelete leading and trailing silent blocks : NoNull samples used in CRC calculations : YesUsed interface : Installed external ASPI interface

Used output format : User Defined EncoderSelected bitrate : 768 kBit/sQuality : HighAdd ID3 tag : YesCommand line compressor : C:\Program Files (x86)\Exact Audio Copy\wavpack-4.60.1\wavpack.exeAdditional command line options : -hm -w "Year=%year%" -w "Genre=%genre%" %source% %dest%

TOC of the extracted CD

Track | Start | Length | Start sector | End sector---------------------------------------------------------1 | 0:00.00 | 4:23.46 | 0 | 197702 | 4:23.46 | 3:37.40 | 19771 | 360853 | 8:01.11 | 4:58.12 | 36086 | 584474 | 12:59.23 | 6:47.39 | 58448 | 890115 | 19:46.62 | 4:28.57 | 89012 | 1091686 | 24:15.44 | 4:46.25 | 109169 | 1306437 | 29:01.69 | 3:02.38 | 130644 | 1443318 | 32:04.32 | 7:21.42 | 144332 | 177448

Range status and errors

Selected range

Filename G:\Rips\Rainbow - Long Live Rock 'n' Roll (Deluxe Ed. Cd1 ).wav

Peak level 96.0 %Extraction speed 6.4 XRange quality 100.0 %Rip by AlderTest CRC 52BD30DACopy CRC 52BD30DACopy OK

No errors occurred

AccurateRip summary

Track 1 not present in databaseTrack 2 not present in databaseTrack 3 not present in databaseTrack 4 not present in databaseTrack 5 not present in databaseTrack 6 not present in databaseTrack 7 not present in databaseTrack 8 not present in database

None of the tracks are present in the AccurateRip database

End of status report
Exact Audio Copy V1.0 beta 3 from 29. August 2011

EAC extraction logfile from 27. November 2012, 13:34

Rainbow / Long Live Rock 'n' Roll (Deluxe Ed. CD2 - Bonus Tracks)

Used drive : ATAPI DVD A DH20A3H Adapter: 4 ID: 0

Read mode : SecureUtilize accurate stream : YesDefeat audio cache : YesMake use of C2 pointers : No

Read offset correction : 6Overread into Lead-In and Lead-Out : NoFill up missing offset samples with silence : YesDelete leading and trailing silent blocks : NoNull samples used in CRC calculations : YesUsed interface : Installed external ASPI interface

Used output format : User Defined EncoderSelected bitrate : 768 kBit/sQuality : HighAdd ID3 tag : YesCommand line compressor : C:\Program Files (x86)\Exact Audio Copy\wavpack-4.60.1\wavpack.exeAdditional command line options : -hm -w "Year=%year%" -w "Genre=%genre%" %source% %dest%

TOC of the extracted CD

Track | Start | Length | Start sector | End sector---------------------------------------------------------1 | 0:00.00 | 3:52.50 | 0 | 174492 | 3:52.50 | 3:04.62 | 17450 | 313113 | 6:57.37 | 5:35.01 | 31312 | 564374 | 12:32.38 | 4:29.53 | 56438 | 766655 | 17:02.16 | 3:38.30 | 76666 | 930456 | 20:40.46 | 4:20.72 | 93046 | 1126177 | 25:01.43 | 6:56.64 | 112618 | 1438818 | 31:58.32 | 6:59.62 | 143882 | 1753689 | 38:58.19 | 4:45.49 | 175369 | 19679210 | 43:43.68 | 3:33.53 | 196793 | 21282011 | 47:17.46 | 5:12.11 | 212821 | 23623112 | 52:29.57 | 6:37.49 | 236232 | 26605513 | 59:07.31 | 5:12.62 | 266056 | 28951714 | 64:20.18 | 6:43.52 | 289518 | 319794

Range status and errors

Selected range

Filename G:\Rips\Rainbow - Long Live Rock 'n' Roll (Deluxe Ed. CD2 - Bonus Tracks).wav

Peak level 98.2 %Extraction speed 7.6 XRange quality 100.0 %Rip by AlderTest CRC F6319F95Copy CRC F6319F95Copy OK

No errors occurred

AccurateRip summary

Track 1 not present in databaseTrack 2 not present in databaseTrack 3 not present in databaseTrack 4 not present in databaseTrack 5 not present in databaseTrack 6 not present in databaseTrack 7 not present in databaseTrack 8 not present in databaseTrack 9 not present in databaseTrack 10 not present in databaseTrack 11 not present in databaseTrack 12 not present in databaseTrack 13 not present in databaseTrack 14 not present in database

None of the tracks are present in the AccurateRip database

End of status report


Трекер:  [ 09-Дек-2012 15:12 ]

  

Скачать .torrent

Размер .torrent файла 16 KB


Размер: 723 MB
Хэш (hash) релиза: f6cc0a6ba6596155279c9e3d2ce0ee6e637aae5d

Торренты, похожие на Rainbow - Long Live Rock n Roll 1978 скачать торрент

Форум Название Автор Размер S L Добавлен
Зарубежный Rock ·· (Hard Rock, Classic Rock) Rainbow - Long Live Rock 'n' Roll - 1978, FLAC (image+.cue), lossless Galfimbul 250668345239 MB 0 0 1357740960

17:16

9-Янв-13

Еще никто не оставлял запись к записи скачать торрент Rainbow - Long Live Rock n Roll 1978 . Будь первым!

!Обратная связь