Скачать через торрент музыку Yoko Ono, Kim Gordon, Thurston Moore - YokoKimThurston - 2012, FLAC бесплатно без регистрации torrent

Если у вас наблюдаются проблемы со скриншотами, переходом по ссылками, скачиванием торрентов - проблемы в блокировщике рекламы AdBlock. #хорошегоДня!


Статистика раздачи
Размер:  300 MB   |    Зарегистрирован:  4 года 8 месяцев   |    .torrent скачан:  4 раза   |   
Раздают:  1  
   
Загрузка...
 
Автор Сообщение

Galfimbul

avatar Galfimbul


Yoko Ono, Kim Gordon, Thurston Moore / YokoKimThurston

Жанр: Post-Rock, Noise, Experimental
Страна-производитель диска: USA
Год издания: 2012
Издатель (лейбл): Chimera Music
Номер по каталогу: CHIM 010CD
Страна: USA
Аудиокодек: FLAC (*.flac)
Тип рипа: image+.cue
Битрейт аудио: lossless
Продолжительность: 60:38
Источник (релизер): Собственный CD
Наличие сканов в содержимом раздачи: да
Треклист:
1 I Missed You Listening 9:58
2 Running The Risk 9:38
3 I Never Told You (Did I?) 7:04
4 Mirror Mirror 9:45
5 Let's Get There 9:34
6 Early In The Morning 14:36
Exact Audio Copy V1.0 beta 3 from 29. August 2011

Отчёт EAC об извлечении, выполненном 29. ноября 2012, 2:51

Yoko Ono, Kim Gordon, Thurston Moore / YokoKimThurston

Дисковод: ATAPI iHAS120 6 Adapter: 0 ID: 1

Режим чтения : ДостоверностьИспользование точного потока : ДаОтключение кэша аудио : ДаИспользование указателей C2 : Нет

Коррекция смещения при чтении : 6Способность читать области Lead-in и Lead-out : НетЗаполнение пропущенных сэмплов тишиной : ДаУдаление блоков с тишиной в начале и конце : НетПри вычислениях CRC использовались нулевые сэмплы : ДаИнтерфейс : Встроенный Win32-интерфейс для Win NT/2000

Выходной формат : Пользовательский кодировщикВыбранный битрейт : 896 kBit/sКачество : ВысокийДобавление ID3-тега : НетУтилита сжатия : C:\Program Files (x86)\Exact Audio Copy\Flac\flac.exeДополнительные параметры : -V -8 -T "Date=%year%" -T "Genre=%genre%" %source%

TOC извлечённого CD

Трек | Старт | Длительность | Начальный сектор | Конечный сектор --------------------------------------------------------------------- 1 | 0:00.00 | 9:58.27 | 0 | 44876 2 | 9:58.27 | 9:38.01 | 44877 | 88227 3 | 19:36.28 | 7:04.62 | 88228 | 120089 4 | 26:41.15 | 9:45.50 | 120090 | 164014 5 | 36:26.65 | 9:34.71 | 164015 | 207135 6 | 46:01.61 | 14:36.54 | 207136 | 272889

Характеристики диапазона извлечения и сообщения об ошибках

Выбранный диапазон

Имя файла C:\Users\Sergey\Downloads\YokoKimThurston\Yoko Ono, Kim Gordon, Thurston Moore - YokoKimThurston.wav

Пиковый уровень 100.0 % Скорость извлечения 3.2 X Качество диапазона 100.0 % CRC теста 6B9C8242 CRC копии 6B9C8242 Копирование... OK

Ошибок не произошло

AccurateRip: сводка

Трек 1 отсутствует в базе данныхТрек 2 отсутствует в базе данныхТрек 3 отсутствует в базе данныхТрек 4 отсутствует в базе данныхТрек 5 отсутствует в базе данныхТрек 6 отсутствует в базе данных

Ни одного трека нет в базе AccurateRip

Конец отчёта

---- CUETools DB Plugin V2.1.3

[CTDB TOCID: CYKA28RxjZBnmH4lZ7Nl8p4MTLs-] found, Submit result: already submitted[8c0c29e5] (2/2) Accurately ripped

==== Контрольная сумма отчёта 7760FCD89265FE9641ADF3A709674C1E1F92B4E98881704BF3CEA4C54FC33E58 ====


Трекер:  [ 09-Дек-2012 15:09 ]

  

Скачать .torrent

Размер .torrent файла 12 KB


Размер: 300 MB
Хэш (hash) релиза: 2dc1c0f4a4371e72c3ee5b9eb9694e03b2086e8a

Еще никто не оставлял запись к записи скачать торрент Yoko Ono, Kim Gordon, Thurston Moore - YokoKimThurston - 2012, FLAC . Будь первым!

!Обратная связь