Скачать через торрент музыку Queen - Jazz - CDP 7 46210 2 бесплатно без регистрации torrent

Если у вас наблюдаются проблемы со скриншотами, переходом по ссылками, скачиванием торрентов - проблемы в блокировщике рекламы AdBlock. #хорошегоДня!


Статистика раздачи
Размер:  290 MB   |    Зарегистрирован:  4 года 8 месяцев   |    .torrent скачан:  14 раз   |   
Раздают:  1  
   
Загрузка...
 
Автор Сообщение

Galfimbul

avatar Galfimbul


Queen / Jazz - CDP 7 46210 2 (alternative mastering)

Жанр: Rock
Страна-производитель диска: Austria
Год издания: ?
Издатель (лейбл): EMI
Номер по каталогу: CDP 7 46210 2
Страна: UK
Аудиокодек: FLAC (*.flac)
Тип рипа: image+.cue
Битрейт аудио: lossless
Продолжительность: 44:49
Источник (релизер): original cd
Наличие сканов в содержимом раздачи: нет
Треклист:
1 Mustapha 3:01
2 Fat Bottomed Girls 4:17
3 Jealousy 3:13
4 Bicycle Race 3:04
5 If You Can't Beat Them 4:15
6 Let Me Entertain You 3:02
7 Dead On Time 3:23
8 In Only Seven Days 2:30
9 Dreamer's Ball 3:30
10 Fun It 3:30
11 Leaving Home Ain't Easy 3:15
12 Don't Stop Me Now 3:29
13 More Of That Jazz 4:16
Exact Audio Copy V1.0 beta 2 from 29. April 2011

Отчёт EAC об извлечении, выполненном 29. ноября 2012, 9:57

Queen / Jazz

Дисковод: MATSHITADVD-RAM UJ8B1AS Adapter: 0 ID: 1

Режим чтения : ДостоверностьИспользование точного потока : ДаОтключение кэша аудио : ДаИспользование указателей C2 : Нет

Коррекция смещения при чтении : 6Способность читать области Lead-in и Lead-out : НетЗаполнение пропущенных сэмплов тишиной : ДаУдаление блоков с тишиной в начале и конце : НетПри вычислениях CRC использовались нулевые сэмплы : ДаИнтерфейс : Встроенный Win32-интерфейс для Win NT/2000

Выходной формат : Пользовательский кодировщикВыбранный битрейт : 768 kBit/sКачество : ВысокийДобавление ID3-тега : НетУтилита сжатия : C:\Program Files (x86)\Exact Audio Copy\FLAC\FLAC.EXEДополнительные параметры : -6 -V -T "ARTIST=%artist%" -T "TITLE=%title%" -T "ALBUM=%albumtitle%" -T "DATE=%year%" -T "TRACKNUMBER=%tracknr%" -T "GENRE=%genre%" -T "COMMENT=%comment%" -T "BAND=%albuminterpret%" -T "COMPOSER=%composer%" %haslyrics%--tag-from-

TOC извлечённого CD

Трек | Старт | Длительность | Начальный сектор | Конечный сектор --------------------------------------------------------------------- 1 | 0:00.00 | 3:01.47 | 0 | 13621 2 | 3:01.47 | 4:17.20 | 13622 | 32916 3 | 7:18.67 | 3:13.45 | 32917 | 47436 4 | 10:32.37 | 3:03.68 | 47437 | 61229 5 | 13:36.30 | 4:15.27 | 61230 | 80381 6 | 17:51.57 | 3:02.00 | 80382 | 94031 7 | 20:53.57 | 3:23.25 | 94032 | 109281 8 | 24:17.07 | 2:30.20 | 109282 | 120551 9 | 26:47.27 | 3:30.58 | 120552 | 136359 10 | 30:18.10 | 3:29.62 | 136360 | 152096 11 | 33:47.72 | 3:15.15 | 152097 | 166736 12 | 37:03.12 | 3:29.43 | 166737 | 182454 13 | 40:32.55 | 4:16.45 | 182455 | 201699

Характеристики диапазона извлечения и сообщения об ошибках

Выбранный диапазон

Имя файла D:\MUSIC\Queen - Jazz\Queen - Jazz.wav

Пиковый уровень 100.0 % Скорость извлечения 4.0 X Качество диапазона 100.0 % CRC копии A5B9ED1A Копирование... OK

Ошибок не произошло

AccurateRip: сводка

Трек 1 точность не определена (достоверность 67) [0970E994], AccurateRip вернул [85797499] (AR v2)Трек 2 точность не определена (достоверность 66) [B319B414], AccurateRip вернул [C86C1058] (AR v2)Трек 3 точность не определена (достоверность 66) [85DD6433], AccurateRip вернул [5B0023C0] (AR v2)Трек 4 точность не определена (достоверность 68) [506B0E51], AccurateRip вернул [61A2B068] (AR v2)Трек 5 точность не определена (достоверность 66) [CB61B44F], AccurateRip вернул [929B2FDF] (AR v2)Трек 6 точность не определена (достоверность 67) [2F6B89B4], AccurateRip вернул [3E2BE8AC] (AR v2)Трек 7 точность не определена (достоверность 66) [DEECBE98], AccurateRip вернул [28F1D252] (AR v2)Трек 8 точность не определена (достоверность 67) [6B8EECA4], AccurateRip вернул [630A6B56] (AR v2)Трек 9 точность не определена (достоверность 65) [14ABBF8A], AccurateRip вернул [D8AB072F] (AR v2)Трек 10 точность не определена (достоверность 64) [2538EEB1], AccurateRip вернул [EB15F5CA] (AR v2)Трек 11 точность не определена (достоверность 66) [A76E2615], AccurateRip вернул [C0290C09] (AR v2)Трек 12 точность не определена (достоверность 68) [4B9DCC99], AccurateRip вернул [C018A85E] (AR v2)Трек 13 точность не определена (достоверность 67) [8F32AB4B], AccurateRip вернул [A6E0FA9C] (AR v2)

Ни один трек не прошёл проверки на точностьВ вашей базе может быть иной вариант штамповки диска

Конец отчёта

==== Контрольная сумма отчёта 0E6CABC9539CDC7BAE38588608BDE6ADD78FFA71BBE6778949EF8F8BF12802B7 ====


Трекер:  [ 09-Дек-2012 15:09 ]

  

Скачать .torrent

Размер .torrent файла 12 KB


Размер: 290 MB
Хэш (hash) релиза: c340952380852d5ab8ee7a0c05f73462a0bc9d62

Еще никто не оставлял запись к записи скачать торрент Queen - Jazz - CDP 7 46210 2 . Будь первым!

!Обратная связь