Скачать через торрент музыку Mike & The Mechanics - Mike + The Mechanics бесплатно без регистрации torrent

Если у вас наблюдаются проблемы со скриншотами, переходом по ссылками, скачиванием торрентов - проблемы в блокировщике рекламы AdBlock. #хорошегоДня!


Статистика раздачи
Размер:  342 MB   |    Зарегистрирован:  4 года 8 месяцев   |    .torrent скачан:  22 раза   |   
Раздают:  1  
   
Загрузка...
 
Автор Сообщение

Galfimbul

avatar Galfimbul


Mike & The Mechanics / Mike + The Mechanics

Жанр: Rock, Prog Related
Страна-производитель диска: USA
Год издания: 1985 (2012)
Издатель (лейбл): Audio Fidelity
Номер по каталогу: AFZ 111
Страна: UK
Аудиокодек: FLAC (*.flac)
Тип рипа: image+.cue
Битрейт аудио: lossless
Продолжительность: 40:16
Источник (релизер): авакс (flac jacket)
Наличие сканов в содержимом раздачи: да

Треклист:

1. Silent Running
2. All I Need Is A Miracle
3. Par Avion
4. Hanging By A Thread
5. I Get The Feeling
6. Take The Reins
7. You Are The One
8. A Call To Arms
9. Taken In
Exact Audio Copy V1.0 beta 2 from 29. April 2011

EAC extraction logfile from 13. November 2012, 18:58

Mike + The Mechanics / Mike + The Mechanics [2012 Audio Fidelity AFZ 111]

Used drive : HL-DT-STDVDRAM GH60N Adapter: 0 ID: 1

Read mode : SecureUtilize accurate stream : YesDefeat audio cache : YesMake use of C2 pointers : No

Read offset correction : 667Overread into Lead-In and Lead-Out : NoFill up missing offset samples with silence : YesDelete leading and trailing silent blocks : NoNull samples used in CRC calculations : YesUsed interface : Native Win32 interface for Win NT & 2000

Used output format : User Defined EncoderSelected bitrate : 1024 kBit/sQuality : HighAdd ID3 tag : NoCommand line compressor : C:\Program Files (x86)\Exact Audio Copy\Flac\flac.exeAdditional command line options : -V -8 -T "artist=%albumartist%" -T "title=%title%" -T "album=%albumtitle%" -T "date=%year%" -T "genre=%genre%" -T "tracknumber=%tracknr%" %source%

TOC of the extracted CD

Track | Start | Length | Start sector | End sector --------------------------------------------------------- 1 | 0:00.00 | 6:14.19 | 0 | 28068 2 | 6:14.19 | 4:10.17 | 28069 | 46835 3 | 10:24.36 | 3:35.68 | 46836 | 63028 4 | 14:00.29 | 4:41.09 | 63029 | 84112 5 | 18:41.38 | 4:30.50 | 84113 | 104412 6 | 23:12.13 | 4:18.18 | 104413 | 123780 7 | 27:30.31 | 3:45.47 | 123781 | 140702 8 | 31:16.03 | 4:41.56 | 140703 | 161833 9 | 35:57.59 | 4:18.47 | 161834 | 181230

Range status and errors

Selected range

Filename C:\EAC\Mike + The Mechanics - (1985) Mike + The Mechanics [2012 Audio Fidelity AFZ 111]\Mike + The Mechanics - Mike + The Mechanics [2012 Audio Fidelity AFZ 111].wav

Peak level 100.0 % Extraction speed 1.6 X Range quality 100.0 % Test CRC CC586DB3 Copy CRC CC586DB3 Copy OK

No errors occurred

AccurateRip summary

Track 1 not present in databaseTrack 2 not present in databaseTrack 3 not present in databaseTrack 4 not present in databaseTrack 5 not present in databaseTrack 6 not present in databaseTrack 7 not present in databaseTrack 8 not present in databaseTrack 9 not present in database

None of the tracks are present in the AccurateRip database

End of status report

==== Log checksum 18997281733AA6E1841E7CCCDD84C46F4E231E36D645C7D68882F2A3D9295322 ====
foobar2000 1.1.7 / Dynamic Range Meter 1.1.0log date: 2012-11-14 00:22:06

--------------------------------------------------------------------------------Analyzed: Mike + The Mechanics / Mike + The Mechanics [2012 Audio Fidelity AFZ 111]--------------------------------------------------------------------------------

DR Peak RMS Duration Track--------------------------------------------------------------------------------DR13 -0.15 dB -15.96 dB 6:14 01-Silent RunningDR14 0.00 dB -16.41 dB 4:10 02-All I Need Is A MiracleDR12 -1.40 dB -16.44 dB 3:36 03-Par AvionDR14 -0.60 dB -16.81 dB 4:41 04-Hanging By A ThreadDR13 -0.84 dB -17.05 dB 4:31 05-I Get The FeelingDR14 -0.70 dB -17.22 dB 4:18 06-Take The ReinsDR11 -0.81 dB -16.35 dB 3:46 07-You Are The OneDR12 -1.52 dB -16.24 dB 4:42 08-A Call To ArmsDR14 -0.42 dB -17.03 dB 4:19 09-Taken In--------------------------------------------------------------------------------

Number of tracks: 9Official DR value: DR13

Samplerate: 44100 HzChannels: 2Bits per sample: 16Bitrate: 762 kbpsCodec: FLAC================================================================================


Трекер:  [ 09-Дек-2012 15:09 ]

  

Скачать .torrent

Размер .torrent файла 14 KB


Размер: 342 MB
Хэш (hash) релиза: 9ad7604a747925ae822db39f284b7c23b63f67ef

Торренты, похожие на Mike & The Mechanics - Mike + The Mechanics скачать торрент

Форум Название Автор Размер S L Добавлен
Rосk | Mеtаl | Аltеrnаtivе, Рunk, Indереndеnt (losslеss) ·· (Pop-progressive) Mike & The Mechanics - The Road (2011), FLAC (image+.cue+covers) lossless Umakiro 345070589329 MB 0 0 1327668261

15:44

27-Янв-12

Rосk | Mеtаl | Аltеrnаtivе, Рunk, Indереndеnt (mр3) ·· (Prog Related) Mike + The Mechanics (& Paul Carrack) - Дискография (14 альбомов) - 1985-2017, MP3, 320 kbps Galfimbul 26074482682.43 GB 0 0 1491731503

12:51

9-Апр-17

Зарубежный Rock ·· (Progressive & Art-Rock) Mike & The Mechanics - Beggar On A Beach Of Gold - 1995, FLAC (image+.cue), lossless Galfimbul 486924233464 MB 0 0 1357332660

23:51

4-Янв-13

Rосk | Mеtаl | Аltеrnаtivе, Рunk, Indереndеnt (losslеss) ·· (ProgRock) Mike & The Mechanics - Word Of Mouth (1st Press Japan) - 1991, FLAC (image+.cue), lossless Umakiro 10618958091013 MB 0 0 1337079060

13:51

15-Май-12

Rосk | Mеtаl | Аltеrnаtivе, Рunk, Indереndеnt (losslеss) ·· (Pop/Rock) Mike & The Mechanics - M6 (1st Press Japan) - 1999, FLAC (image+.cue), lossless Umakiro 10526107751004 MB 0 0 1337079060

13:51

15-Май-12

Rосk | Mеtаl | Аltеrnаtivе, Рunk, Indереndеnt (losslеss) ·· (Pop/Rock) Mike & The Mechanics - Rewired (1st Press Japan) - 2004, FLAC (image+.cue), lossless Umakiro 969507804925 MB 0 0 1337079060

13:51

15-Май-12

Rосk | Mеtаl | Аltеrnаtivе, Рunk, Indереndеnt (mр3) ·· (Prog Related) Mike & The Mechanics (& Paul Carrack)- Дискография (10 альбомов) - 1985-2011, MP3, 320 kbps Devil_Black 17545087701.63 GB 0 0 1324614698

07:31

23-Дек-11

Rосk | Mеtаl | Аltеrnаtivе, Рunk, Indереndеnt (mр3) ·· (Rock) Mike & The Mechanics - Let Me Fly - 2017, MP3, 320 kbps Galfimbul 122378642117 MB 0 0 1491475671

13:47

6-Апр-17

Еще никто не оставлял запись к записи скачать торрент Mike & The Mechanics - Mike + The Mechanics . Будь первым!

!Обратная связь