Скачать через торрент музыку Present - Live Delusions - 2009, WavPack бесплатно без регистрации torrent

Если у вас наблюдаются проблемы со скриншотами, переходом по ссылками, скачиванием торрентов - проблемы в блокировщике рекламы AdBlock. #хорошегоДня!


Статистика раздачи
Размер:  412 MB   |    Зарегистрирован:  4 года 11 месяцев   |    .torrent скачан:  5 раз   |   
Раздают:  1  
   
Загрузка...
 
Автор Сообщение

Galfimbul

avatar Galfimbul


Present / Live Delusions

Жанр: Avant-Prog
Страна-производитель диска: Japan
Год издания: 2009
Издатель (лейбл): Tachika Records
Номер по каталогу: PRETLCD-096
Страна: France
Аудиокодек: WavPack (*.wv)
Тип рипа: iso.wv
Битрейт аудио: lossless
Продолжительность: 74:10
Источник (релизер): tatuk (с полочки в шкафчике)
Наличие сканов в содержимом раздачи: да
Треклист:
1) Delusions
2) Alone
3) Le Poison qui Rend Fou, Part 2
4) Promenade Au FOnd D'Un Canal
5) Laundry Blues
Exact Audio Copy V1.0 beta 3 from 29. August 2011

EAC extraction logfile from 16. November 2012, 23:13

Present / Live Delusions

Used drive : SONY DVD RW DRU-830A Adapter: 1 ID: 0

Read mode : SecureUtilize accurate stream : YesDefeat audio cache : YesMake use of C2 pointers : No

Read offset correction : 6Overread into Lead-In and Lead-Out : NoFill up missing offset samples with silence : YesDelete leading and trailing silent blocks : NoNull samples used in CRC calculations : YesUsed interface : Native Win32 interface for Win NT & 2000

Used output format : User Defined EncoderSelected bitrate : 768 kBit/sQuality : HighAdd ID3 tag : NoCommand line compressor : C:\Program Files (x86)\Exact Audio Copy\wavpack\wavpack.exeAdditional command line options : -hlm %source%

TOC of the extracted CD

Track | Start | Length | Start sector | End sector --------------------------------------------------------- 1 | 0:00.00 | 15:09.39 | 0 | 68213 2 | 15:09.39 | 12:19.58 | 68214 | 123696 3 | 27:29.22 | 11:59.74 | 123697 | 177695 4 | 39:29.21 | 22:03.00 | 177696 | 276920 5 | 61:32.21 | 12:38.63 | 276921 | 333833

Range status and errors

Selected range

Filename D:\_NL+_by_TATUK\WV.ISO8\Present - Live Delusions.wav

Peak level 93.7 % Extraction speed 8.2 X Range quality 99.9 % Copy CRC 07D214CF Copy OK

No errors occurred

AccurateRip summary

Track 1 not present in databaseTrack 2 not present in databaseTrack 3 not present in databaseTrack 4 not present in databaseTrack 5 not present in database

None of the tracks are present in the AccurateRip database

End of status report

==== Log checksum 60212E36D12D1E44CB69BCBE357518A3546E92F194692D36F3D9ACF587B0EE7C ====
REM GENRE "Avantgarde"REM DATE 2009REM DISCID 3D116305REM COMMENT "ExactAudioCopy v1.0b3"PERFORMER "Present"TITLE "Live Delusions"FILE "Present - Live Delusions 2009.wv" WAVE TRACK 01 AUDIO TITLE "Delusions" PERFORMER "Present" INDEX 01 00:00:00 TRACK 02 AUDIO TITLE "Alone" PERFORMER "Present" INDEX 01 15:09:39 TRACK 03 AUDIO TITLE "Le Poison Qui Rend Fou, Part 2" PERFORMER "Present" INDEX 01 27:29:22 TRACK 04 AUDIO TITLE "Promenade Au Fond D'un Canal" PERFORMER "Present" INDEX 01 39:29:21 TRACK 05 AUDIO TITLE "Laundry Blues" PERFORMER "Present" INDEX 01 61:32:21
-----------------------

DON'T MODIFY THIS FILE

-----------------------

PERFORMER: auCDtect Task Manager, ver. 1.5.1RC6 build 1.5.1.7Copyright (c) 2008-2010 y-soft. All rights reservedhttp://y-soft.org

ANALYZER: auCDtect: CD records authenticity detector, version 0.8.2Copyright (c) 2004 Oleg Berngardt. All rights reserved.Copyright (c) 2004 Alexander Djourik. All rights reserved.

FILE: Present - Live Delusions 2009.wv Size: 373050628 Hash: 41FFF8AA8EB5B1CB6D9CC8DCA0A48005 Accuracy: -m0 Conclusion: CDDA 100% Signature: 9EB032C386E474794B6375EE6584E929B446A244
Present - Live Delusions 2009.log
Present - Live Delusions 2009.wv
Present - Live Delusions 2009.wv.cue
back.jpg
cd.jpg
front.jpg
Tachika Records PRETLCD-096.sig
checkers\matrix.jpg
checkers\Present - Live Delusions 2009.accurip
checkers\Present - Live Delusions 2009.wv.auCDtect.txt
checkers\spectral.jpg
checkers\wave.jpg
checkers\EAC.jpg
misc\info.txt
readme\[RUS] README No unpacking needed to play or burn this release.txt
readme\[ENG] README No unpacking needed to play or burn this release.txt
scans\cd.png
scans\front.png
scans\back.png
Доп. информация: Tachika опять порадовала коллекционеров, добавив к номерным дискам очередной официальный бутлег, теперь уже для Present. C одной стороны - класс, ибо какому добряку может быть неинтересным выступление парней на Festival Oppoosition de Phase от 16 октября 1998 года, тем более если на барабанах стучал сам Даниэль Дени?? А с другой - Тачика никогда не занимается ремастером бутлегов, а печатает as is. Так и здесь - даже уровень сигнала не подняли, издатели хреновы...

Но всё равно, Презент - он и на бутлеге Презент. Издано в виде mini-LP, достаточно аккуратно. Маньякам дискографий - качать!
Roger Trigaux - guitar, vocals
Reginald Trigaux - guitar, bass, vocals
Daniel Denis - drums
Pierre Chevalier - keyboards
Jean-Pierre Mendes - bass


Трекер:  [ 09-Дек-2012 15:09 ]

  

Скачать .torrent

Размер .torrent файла 2 KB


Размер: 412 MB
Хэш (hash) релиза: 5b55cde5302a22accfb8ff65632ae585348e63a3

Еще никто не оставлял запись к записи скачать торрент Present - Live Delusions - 2009, WavPack . Будь первым!

!Обратная связь