Скачать через торрент музыку Bobby Rydell - Bobby Rydells Biggest Hits бесплатно без регистрации torrent

Если у вас наблюдаются проблемы со скриншотами, переходом по ссылками, скачиванием торрентов - проблемы в блокировщике рекламы AdBlock. #хорошегоДня!


Статистика раздачи
Размер:  455 MB   |    Зарегистрирован:  4 года 8 месяцев   |    .torrent скачан:  10 раз   |   
Раздают:  1  
   
Загрузка...
 
Автор Сообщение

Galfimbul

avatar Galfimbul


Bobby Rydell / Bobby Rydell's Biggest Hits

Жанр: Twist
Страна-производитель диска: USA
Год издания: 1997
Издатель (лейбл): Famous Groove Records
Номер по каталогу: FG971004
Страна: USA
Аудиокодек: FLAC (*.flac)
Тип рипа: image+.cue
Битрейт аудио: lossless
Продолжительность: 72:00
Источник (релизер): AUDELAS KINGDOM
Наличие сканов в содержимом раздачи: да
01. That Old Black Magic
02. Good Time Baby
03. Wild One
04. Swinging School
05. Kissin Time
06. The Fish
07. Wildwood Days
08. Ding-A-Ling
09. I Wanna Thank You
10. Make Me Forget
11. Butterfly Baby
12. Ive Got Bonnie
13. Forget Him
14. The Cha Cha Cha
15. Sway
16. Little Bitty Girl
17. Cherie
18. We Got Love
19. Lets Make Love Tonight
20. Do It Again
21. I Dig Girls
22. Groovy Tonight
23. Stop Fooling Around
24. The Third House
25. Lovin Doll
26. Home In Your Arms
27. You Were Made For Me
28. Lose Her
29. Little Queenie
30. Teach Me To Twist (With Chubby Checker)
xact Audio Copy V1.0 beta 2 from 29. April 2011

Отчёт EAC об извлечении, выполненном 28. ноября 2012, 20:11

Bobby Rydell / Bobby Rydell's Biggest Hits

Дисковод: ATAPI iHAS124 B Adapter: 1 ID: 1

Режим чтения : ДостоверностьИспользование точного потока : ДаОтключение кэша аудио : ДаИспользование указателей C2 : Нет

Коррекция смещения при чтении : 6Способность читать области Lead-in и Lead-out : НетЗаполнение пропущенных сэмплов тишиной : ДаУдаление блоков с тишиной в начале и конце : НетПри вычислениях CRC использовались нулевые сэмплы : ДаИнтерфейс : Встроенный Win32-интерфейс для Win NT/2000

Выходной формат : Пользовательский кодировщикВыбранный битрейт : 1024 kBit/sКачество : ВысокийДобавление ID3-тега : НетУтилита сжатия : C:\Program Files\Exact Audio Copy\FLAC\FLAC.EXEДополнительные параметры : -6 -V -T "ARTIST=%artist%" -T "TITLE=%title%" -T "ALBUM=%albumtitle%" -T "DATE=%year%" -T "TRACKNUMBER=%tracknr%" -T "GENRE=%genre%" -T "COMMENT=%comment%" -T "BAND=%albuminterpret%" -T "COMPOSER=%composer%" %haslyrics%--tag-from-

TOC извлечённого CD

Трек | Старт | Длительность | Начальный сектор | Конечный сектор --------------------------------------------------------------------- 1 | 0:00.00 | 2:24.70 | 0 | 10869 2 | 2:24.70 | 2:11.16 | 10870 | 20710 3 | 4:36.11 | 2:24.65 | 20711 | 31575 4 | 7:01.01 | 2:16.62 | 31576 | 41837 5 | 9:17.63 | 2:12.60 | 41838 | 51797 6 | 11:30.48 | 2:14.59 | 51798 | 61906 7 | 13:45.32 | 2:34.48 | 61907 | 73504 8 | 16:20.05 | 2:31.33 | 73505 | 84862 9 | 18:51.38 | 2:33.01 | 84863 | 96338 10 | 21:24.39 | 2:23.49 | 96339 | 107112 11 | 23:48.13 | 2:19.43 | 107113 | 117580 12 | 26:07.56 | 2:35.06 | 117581 | 129211 13 | 28:42.62 | 2:10.52 | 129212 | 139013 14 | 30:53.39 | 2:34.36 | 139014 | 150599 15 | 33:28.00 | 2:25.53 | 150600 | 161527 16 | 35:53.53 | 2:30.26 | 161528 | 172803 17 | 38:24.04 | 2:16.69 | 172804 | 183072 18 | 40:40.73 | 2:26.23 | 183073 | 194045 19 | 43:07.21 | 2:21.39 | 194046 | 204659 20 | 45:28.60 | 2:19.70 | 204660 | 215154 21 | 47:48.55 | 2:33.54 | 215155 | 226683 22 | 50:22.34 | 2:14.43 | 226684 | 236776 23 | 52:37.02 | 2:27.04 | 236777 | 247805 24 | 55:04.06 | 2:18.69 | 247806 | 258224 25 | 57:23.00 | 2:06.01 | 258225 | 267675 26 | 59:29.01 | 2:07.33 | 267676 | 277233 27 | 61:36.34 | 2:13.44 | 277234 | 287252 28 | 63:50.03 | 2:12.25 | 287253 | 297177 29 | 66:02.28 | 2:24.46 | 297178 | 308023 30 | 68:26.74 | 2:29.72 | 308024 | 319270

Характеристики диапазона извлечения и сообщения об ошибках

Выбранный диапазон

Имя файла D:\Muzika\Bobby Rydell - Bobby Rydell's Biggest Hits (1997)\Bobby Rydell - Bobby Rydell's Biggest Hits.wav

Пиковый уровень 100.0 % Скорость извлечения 9.6 X Качество диапазона 100.0 % CRC теста 9DF723C1 CRC копии 9DF723C1 Копирование... OK

Ошибок не произошло

Конец отчёта

==== Контрольная сумма отчёта E7C484FABF14B43582F674A7C258BF7EE36388F9812CE61762BC201391642BE1 ====


Трекер:  [ 09-Дек-2012 15:09 ]

  

Скачать .torrent

Размер .torrent файла 18 KB


Размер: 455 MB
Хэш (hash) релиза: 6048d013fd45c1382c10bd9f8e8cd88df23868b4

Еще никто не оставлял запись к записи скачать торрент Bobby Rydell - Bobby Rydells Biggest Hits . Будь первым!

!Обратная связь