Скачать через торрент музыку Gotthard - Domino Effect бесплатно без регистрации torrent

Если у вас наблюдаются проблемы со скриншотами, переходом по ссылками, скачиванием торрентов - проблемы в блокировщике рекламы AdBlock. #хорошегоДня!


Статистика раздачи
Размер:  631 MB   |    Зарегистрирован:  4 года 8 месяцев   |    .torrent скачан:  15 раз   |   
Раздают:  1  
   
Загрузка...
 
Автор Сообщение

Galfimbul

avatar Galfimbul


Gotthard - Domino Effect

Жанр: Hard Rock
Страна-производитель диска: Germany
Год издания диска: 2007
Издатель (лейбл): Nuclear Blast GmbH.
Номер по каталогу: 27361 20212
Страна: Switzerland
Аудио кодек: FLAC (*.flac)
Тип рипа: image+.cue
Битрейт аудио: lossless
Продолжительность: 01:26:33
Источник (релизер): swint68
Наличие сканов в содержимом раздачи: да
Треклист:
01. Master Of Illusion 03:55
02. Gone To Far 03:55
03. Domino Effect 03:48
04. Falling 03:35
05. The Call 03:55
06. The Oscar Goes To... 04:21
07. The Cruiser (Judgement Day) 04:27
08. Heal Me 03:46
09. Letter To A Friend 03:54
10. Tomorrow's Just Begun 04:03
11. Come Alive 02:51
12. Bad To The Bone 03:40
13. Now 04:11
14. Where Is Love When It's Gone 04:09
Bonus Track:
15. Can't Be The "Real Thing" 03:41
Exact Audio Copy V0.99 prebeta 5 from 4. May 2009

EAC extraction logfile from 12. April 2011, 14:19

Gotthard / Domino Effect - cd1

Used drive : MITSUMI CR-48XETE Adapter: 0 ID: 0

Read mode : SecureUtilize accurate stream : YesDefeat audio cache : YesMake use of C2 pointers : No

Read offset correction : 12Overread into Lead-In and Lead-Out : NoFill up missing offset samples with silence : YesDelete leading and trailing silent blocks : NoNull samples used in CRC calculations : YesUsed interface : Native Win32 interface for Win NT & 2000

Used output format : Internal WAV RoutinesSample format : 44.100 Hz; 16 Bit; Stereo

TOC of the extracted CD

Track | Start | Length | Start sector | End sector --------------------------------------------------------- 1 | 0:00.00 | 3:55.64 | 0 | 17688 2 | 3:55.64 | 3:55.04 | 17689 | 35317 3 | 7:50.68 | 3:48.30 | 35318 | 52447 4 | 11:39.23 | 3:35.36 | 52448 | 68608 5 | 15:14.59 | 3:55.26 | 68609 | 86259 6 | 19:10.10 | 4:21.06 | 86260 | 105840 7 | 23:31.16 | 4:27.67 | 105841 | 125932 8 | 27:59.08 | 3:46.51 | 125933 | 142933 9 | 31:45.59 | 3:54.26 | 142934 | 160509 10 | 35:40.10 | 4:03.14 | 160510 | 178748 11 | 39:43.24 | 2:51.57 | 178749 | 191630 12 | 42:35.06 | 3:40.05 | 191631 | 208135 13 | 46:15.11 | 4:11.60 | 208136 | 227020 14 | 50:26.71 | 4:09.29 | 227021 | 245724 15 | 54:36.25 | 3:41.06 | 245725 | 262305

Range status and errors

Selected range

Filename D:\Gotthard - Domino Effect - cd1.wav

Peak level 99.7 % Range quality 100.0 % Copy CRC E42E77BF Copy OK

No errors occurred

End of status report
Exact Audio Copy V0.99 prebeta 5 from 4. May 2009

EAC extraction logfile from 12. April 2011, 14:19

Gotthard / Domino Effect - cd1

Used drive : MITSUMI CR-48XETE Adapter: 0 ID: 0

Read mode : SecureUtilize accurate stream : YesDefeat audio cache : YesMake use of C2 pointers : No

Read offset correction : 12Overread into Lead-In and Lead-Out : NoFill up missing offset samples with silence : YesDelete leading and trailing silent blocks : NoNull samples used in CRC calculations : YesUsed interface : Native Win32 interface for Win NT & 2000

Used output format : Internal WAV RoutinesSample format : 44.100 Hz; 16 Bit; Stereo

TOC of the extracted CD

Track | Start | Length | Start sector | End sector --------------------------------------------------------- 1 | 0:00.00 | 3:55.64 | 0 | 17688 2 | 3:55.64 | 3:55.04 | 17689 | 35317 3 | 7:50.68 | 3:48.30 | 35318 | 52447 4 | 11:39.23 | 3:35.36 | 52448 | 68608 5 | 15:14.59 | 3:55.26 | 68609 | 86259 6 | 19:10.10 | 4:21.06 | 86260 | 105840 7 | 23:31.16 | 4:27.67 | 105841 | 125932 8 | 27:59.08 | 3:46.51 | 125933 | 142933 9 | 31:45.59 | 3:54.26 | 142934 | 160509 10 | 35:40.10 | 4:03.14 | 160510 | 178748 11 | 39:43.24 | 2:51.57 | 178749 | 191630 12 | 42:35.06 | 3:40.05 | 191631 | 208135 13 | 46:15.11 | 4:11.60 | 208136 | 227020 14 | 50:26.71 | 4:09.29 | 227021 | 245724 15 | 54:36.25 | 3:41.06 | 245725 | 262305

Range status and errors

Selected range

Filename D:\Gotthard - Domino Effect - cd1.wav

Peak level 99.7 % Range quality 100.0 % Copy CRC E42E77BF Copy OK

No errors occurred

End of status report
-----------------------

DON'T MODIFY THIS FILE

-----------------------

PERFORMER: auCDtect Task Manager, ver. 1.5.1RC4 build 1.5.1.5Copyright (c) 2008-2010 y-soft. All rights reservedhttp://y-soft.org

ANALYZER: auCDtect: CD records authenticity detector, version 0.8.2Copyright (c) 2004 Oleg Berngardt. All rights reserved.Copyright (c) 2004 Alexander Djourik. All rights reserved.

FILE: Gotthard - Domino Effect - cd1.flac Size: 438049596 Hash: A3B15D8941ADAE427CC66C384B0F2032 Accuracy: -m8 Conclusion: CDDA 100% Signature: CC34E033337B65C1D49522168E8BC66485E3F6AD
01. Hurry 04:15
02. Let It Be 05:30
03. Come Alive 04:18
04. One Life, One Soul 04:26
05. Lift U Up 04:10
06. Hush 05:33

The Unplugged Radio Show "SWE 1-Kopfhorer" - July 27, 2007
Exact Audio Copy V0.99 prebeta 5 from 4. May 2009

EAC extraction logfile from 12. April 2011, 11:43

Gotthard / Domino Effect - cd2 - The Unplugged Radio Show

Used drive : MITSUMI CR-48XETE Adapter: 0 ID: 0

Read mode : SecureUtilize accurate stream : YesDefeat audio cache : YesMake use of C2 pointers : No

Read offset correction : 12Overread into Lead-In and Lead-Out : NoFill up missing offset samples with silence : YesDelete leading and trailing silent blocks : NoNull samples used in CRC calculations : YesUsed interface : Native Win32 interface for Win NT & 2000

Used output format : Internal WAV RoutinesSample format : 44.100 Hz; 16 Bit; Stereo

TOC of the extracted CD

Track | Start | Length | Start sector | End sector --------------------------------------------------------- 1 | 0:00.00 | 4:15.46 | 0 | 19170 2 | 4:15.46 | 5:30.34 | 19171 | 43954 3 | 9:46.05 | 4:18.62 | 43955 | 63366 4 | 14:04.67 | 4:26.38 | 63367 | 83354 5 | 18:31.30 | 4:10.38 | 83355 | 102142 6 | 22:41.68 | 5:33.44 | 102143 | 127161

Range status and errors

Selected range

Filename D:\Gotthard - Domino Effect - cd2 - The Unplugged Radio Show.wav

Peak level 98.9 % Range quality 99.9 % Copy CRC 16C73BB3 Copy OK

No errors occurred

End of status report
REM GENRE RockREM DATE 2007REM DISCID 4A069F06REM COMMENT "ExactAudioCopy v0.99pb5"PERFORMER "Gotthard"TITLE "Domino Effect - cd2 - The Unplugged Radio Show"FILE "Gotthard - Domino Effect - cd2 - The Unplugged Radio Show.flac" WAVE TRACK 01 AUDIO TITLE "Hurry" PERFORMER "Gotthard" INDEX 01 00:00:00 TRACK 02 AUDIO TITLE "Let It Be" PERFORMER "Gotthard" INDEX 01 04:15:46 TRACK 03 AUDIO TITLE "Come Alive" PERFORMER "Gotthard" INDEX 01 09:46:05 TRACK 04 AUDIO TITLE "One Life, One Soul" PERFORMER "Gotthard" INDEX 01 14:04:67 TRACK 05 AUDIO TITLE "Lift U Up" PERFORMER "Gotthard" INDEX 01 18:31:30 TRACK 06 AUDIO TITLE "Hush" PERFORMER "Gotthard" INDEX 01 22:41:68
-----------------------

DON'T MODIFY THIS FILE

-----------------------

PERFORMER: auCDtect Task Manager, ver. 1.5.1RC4 build 1.5.1.5Copyright (c) 2008-2010 y-soft. All rights reservedhttp://y-soft.org

ANALYZER: auCDtect: CD records authenticity detector, version 0.8.2Copyright (c) 2004 Oleg Berngardt. All rights reserved.Copyright (c) 2004 Alexander Djourik. All rights reserved.

FILE: Gotthard - Domino Effect - cd2 - The Unplugged Radio Show.flac Size: 211178369 Hash: 0EED176034C35630CAE7C29636E9F0D4 Accuracy: -m8 Conclusion: CDDA 100% Signature: 60E60B86E96454F87E53EAEC476E9F2ACF6F68AE
Доп. информация:
Steve Lee - lead vocals
Leo Leoni - guitars & backvocals
Freddy Scherer - guitars & backvocals
Marc Lynn - bass
Hena habegger - drums & percussion
Nicolo Fragile - keyboards

Flavio Hochstrasser - additional backvocals on tracks 3,8,11,12,13,14
Danny Lee - additional backvocals on tracks 8,11,12,13
Elle Ten Damme - additional backvocals on tracks 3,11
Anders Wikstorem - additional backvocals on track 3
Chunhe Gao - violin on track 4
Ceck Formenti - trumpet on track 4
Lino Rigamonti - accordion on track 4


Трекер:  [ 09-Дек-2012 15:09 ]

  

Скачать .torrent

Размер .torrent файла 14 KB


Размер: 631 MB
Хэш (hash) релиза: d36fbfe0803a54c62707dc0a2d9f44ff753557ac

Торренты, похожие на Gotthard - Domino Effect скачать торрент

Форум Название Автор Размер S L Добавлен
Rосk | Mеtаl | Аltеrnаtivе, Рunk, Indереndеnt (losslеss) ·· (Melodic Hard Rock) Gotthard - Domino Effect (Digipack Nuclear Blast 27361 18160) - 2007, APE (image+.cue), lossless Galfimbul 447347484427 MB 0 0 1297876235

20:10

16-Фев-11

Еще никто не оставлял запись к записи скачать торрент Gotthard - Domino Effect . Будь первым!

!Обратная связь