Скачать через торрент музыку Syndone - La Bella è la Bestia бесплатно без регистрации torrent

Если у вас наблюдаются проблемы со скриншотами, переходом по ссылками, скачиванием торрентов - проблемы в блокировщике рекламы AdBlock. #хорошегоДня!


Статистика раздачи
Размер:  330 MB   |    Зарегистрирован:  4 года 8 месяцев   |    .torrent скачан:  4 раза   |   
Раздают:  1  
   
Загрузка...
 
Автор Сообщение

Galfimbul

avatar Galfimbul


Syndone / La Bella è la Bestia (The Beauty Is The Beast)
Жанр: Rock Progressivo Italiano
Год издания: 2012
Издатель (лейбл): AMS Records
Номер по каталогу: AMS 211 CD
Страна: Italy
Аудиокодек: FLAC (*.flac)
Тип рипа: image+.cue
Битрейт аудио: lossless
Продолжительность: 46:30
Источник (релизер): CD (мой рип)
Наличие сканов в содержимом раздачи: да

Треклист:
1. Introitis (3:11)
2. Il Fiele E Il Limite (4:49)
3. Rosa Recisa (4:57)
4. Complice Carnefice (6:08)
5. Piano Prog Impromptu (1:23)
6. Tu Non Sei Qui (4:22)
7. Orribile Mia Forma (3:53)
8. Mercanti Di Gioia (4:13)
9. Bestia! (3:57)
10. Ora Respira (4:38)
11. La Ruota Della Fortuna (3:38)
12. Canto Della Rossa (1:16)
Rosa recisa Tu non sei qui Bestia! Orribile mia forma
|| syndone.it|| progarchives.com || prognaut.com || rateyourmusic.com ||
Exact Audio Copy V1.0 beta 3 from 29. August 2011

EAC extraction logfile from 28. November 2012, 10:36

Syndone / La Bella e La Bestia (Beauty Is The Beast)

Used drive : ASUS DRW-1608P3S Adapter: 1 ID: 1

Read mode : SecureUtilize accurate stream : YesDefeat audio cache : YesMake use of C2 pointers : No

Read offset correction : 48Overread into Lead-In and Lead-Out : YesFill up missing offset samples with silence : YesDelete leading and trailing silent blocks : NoNull samples used in CRC calculations : YesUsed interface : Installed external ASPI interface

Used output format : Internal WAV RoutinesSample format : 44.100 Hz; 16 Bit; Stereo

TOC of the extracted CD

Track | Start | Length | Start sector | End sector --------------------------------------------------------- 1 | 0:00.00 | 3:11.72 | 0 | 14396 2 | 3:11.72 | 4:49.33 | 14397 | 36104 3 | 8:01.30 | 4:57.16 | 36105 | 58395 4 | 12:58.46 | 6:08.67 | 58396 | 86062 5 | 19:07.38 | 1:23.28 | 86063 | 92315 6 | 20:30.66 | 4:22.59 | 92316 | 112024 7 | 24:53.50 | 3:53.20 | 112025 | 129519 8 | 28:46.70 | 4:13.29 | 129520 | 148523 9 | 33:00.24 | 3:57.02 | 148524 | 166300 10 | 36:57.26 | 4:38.21 | 166301 | 187171 11 | 41:35.47 | 3:38.27 | 187172 | 203548 12 | 45:13.74 | 1:16.02 | 203549 | 209250

Range status and errors

Selected range

Filename E:\bzp01\Syndone - La bella e la bestia (The Beauty Is the Beast)\Syndone - La Bella e La Bestia (Beauty Is The Beast).wav

Peak level 96.6 % Extraction speed 7.1 X Range quality 100.0 % Test CRC EF68A9E0 Copy CRC EF68A9E0 Copy OK

No errors occurred

AccurateRip summary

Track 1 accurately ripped (confidence 1) [46CB496F] (AR v2)Track 2 accurately ripped (confidence 1) [B8090E5D] (AR v2)Track 3 accurately ripped (confidence 1) [B9A533F8] (AR v2)Track 4 accurately ripped (confidence 1) [4033F3B4] (AR v2)Track 5 accurately ripped (confidence 1) [034F2EE3] (AR v2)Track 6 accurately ripped (confidence 1) [C2346D3F] (AR v2)Track 7 accurately ripped (confidence 1) [F0F9E086] (AR v2)Track 8 accurately ripped (confidence 1) [DA7BB376] (AR v2)Track 9 accurately ripped (confidence 1) [98CF4E42] (AR v2)Track 10 accurately ripped (confidence 1) [6E50C5FC] (AR v2)Track 11 accurately ripped (confidence 1) [8FEFB23E] (AR v2)Track 12 accurately ripped (confidence 1) [5D92BD0C] (AR v2)

All tracks accurately ripped

End of status report

==== Log checksum 4E2A3492B16B3A479417CF38602EFF31A7402040FF7C06A5C1B12AE8569F1AFF ====
REM GENRE "Progressive Rock"REM DATE 2012REM DISCID B00AE60CREM COMMENT "ExactAudioCopy v1.0b3"PERFORMER "Syndone"TITLE "La Bella e La Bestia (Beauty Is The Beast)"FILE "Syndone - La Bella e La Bestia (Beauty Is The Beast).flac" WAVE TRACK 01 AUDIO TITLE "Introitis" PERFORMER "Syndone" INDEX 01 00:00:00 TRACK 02 AUDIO TITLE "Il Fiele E Il Limite" PERFORMER "Syndone" INDEX 01 03:11:72 TRACK 03 AUDIO TITLE "Rosa Recisa" PERFORMER "Syndone" INDEX 01 08:01:30 TRACK 04 AUDIO TITLE "Complice Carnefice" PERFORMER "Syndone" INDEX 01 12:58:46 TRACK 05 AUDIO TITLE "Piano Prog Impromptu" PERFORMER "Syndone" INDEX 01 19:07:38 TRACK 06 AUDIO TITLE "Tu Non Sei Qui" PERFORMER "Syndone" INDEX 01 20:30:66 TRACK 07 AUDIO TITLE "Orribile Mia Forma" PERFORMER "Syndone" INDEX 01 24:53:50 TRACK 08 AUDIO TITLE "Mercanti Di Gioia" PERFORMER "Syndone" INDEX 01 28:46:70 TRACK 09 AUDIO TITLE "Bestia!" PERFORMER "Syndone" INDEX 01 33:00:24 TRACK 10 AUDIO TITLE "Ora Respira" PERFORMER "Syndone" INDEX 01 36:57:26 TRACK 11 AUDIO TITLE "La Ruota Della Fortuna" PERFORMER "Syndone" INDEX 01 41:35:47 TRACK 12 AUDIO TITLE "Canto Della Rossa" PERFORMER "Syndone" INDEX 01 45:13:74
[CUETools log; Date: 28.11.2012 10:43:10; Version: 2.1.2a][CTDB TOCID: sXtZ1Rg9apFjPAIEZoe4700pgN0-] disk not present in database.[AccurateRip ID: 00160723-00cc6ae5-b00ae60c] found.Track [ CRC ] Status 01 [34ed4239] (0/1) No match but offset 02 [9b185304] (0/1) No match but offset 03 [bba3045e] (0/1) No match but offset 04 [af3bfc27] (0/1) No match but offset 05 [16c7415e] (0/1) No match but offset 06 [bc879e5b] (0/1) No match but offset 07 [bf9756f2] (0/1) No match but offset 08 [b6aa3fd8] (0/1) No match but offset 09 [901e4502] (0/1) No match but offset 10 [aa067b54] (0/1) No match but offset 11 [c0cd1708] (0/1) No match but offset 12 [a32b3ee3] (0/1) No match but offsetAccurateRip v2: 01 [46cb496f] (1/1) Accurately ripped 02 [b8090e5d] (1/1) Accurately ripped 03 [b9a533f8] (1/1) Accurately ripped 04 [4033f3b4] (1/1) Accurately ripped 05 [034f2ee3] (1/1) Accurately ripped 06 [c2346d3f] (1/1) Accurately ripped 07 [f0f9e086] (1/1) Accurately ripped 08 [da7bb376] (1/1) Accurately ripped 09 [98cf4e42] (1/1) Accurately ripped 10 [6e50c5fc] (1/1) Accurately ripped 11 [8fefb23e] (1/1) Accurately ripped 12 [5d92bd0c] (1/1) Accurately ripped

Track Peak [ CRC32 ] [W/O NULL] [ LOG ] -- 96,6 [EF68A9E0] [B6485F40] CRC32 01 94,9 [1BDF73C4] [9CA8658C] 02 95,0 [1962FB53] [DA7E63E7] 03 94,9 [9F9C5FAD] [D67E6827] 04 96,6 [479AA29F] [E662DC81] 05 94,8 [6B483E38] [9B36446C] 06 94,7 [41803AB7] [DCA1AA9E] 07 94,9 [5D25FD58] [83A6D8A4] 08 94,9 [3C30BCF9] [B738EEED] 09 94,9 [E3C83B6F] [A5EEFA2C] 10 94,8 [EB3D0B47] [2E258956] 11 94,8 [F830A941] [EA2A8C04] 12 87,2 [C8DED8EB] [0B891E3F]

-----------------------

DON'T MODIFY THIS FILE

-----------------------

PERFORMER: auCDtect Task Manager, ver. 1.5.1RC6 build 1.5.1.7Copyright (c) 2008-2010 y-soft. All rights reservedhttp://y-soft.org

ANALYZER: auCDtect: CD records authenticity detector, version 0.8.2Copyright (c) 2004 Oleg Berngardt. All rights reserved.Copyright (c) 2004 Alexander Djourik. All rights reserved.

FILE: Syndone - La Bella e La Bestia (Beauty Is The Beast).flac Size: 304309603 Hash: 327D8BF222C5D795401EF8FF16FF75F6 Accuracy: -m0 Conclusion: CDDA 99% Signature: 7B73A35B265E072487F039661A3F94DB780AD780
Syndone biography

Italian band Syndone is Nik Comoglio's one time project. Nico (Nik) Comoglio was born in Turin on 28/11/62. He was graduated as architect but at the same time privately studied piano and composition.

Still in University he created several jingles for ads and soundtracks for two semi-professional movies.

From 1990 to 1993, he formed the new prog band, "Syndone" ("Shroud"), with whom he recorded two CD's: "Spleen" and "Inca", produced by Beppe Crovella from "Arti & Mestieri" band, for the music label Vinyl Magic s.a.s. in Milano. Two other members were Paolo Sburlati- drums, and Fulvio Serra- bass.

Spleen - 1992

This CD is the story of a young man (Kiin) who experiences spleen (sad mood) everyday because of his inability to adapt to society and to the rules it imposes on him. It's a bit like the young boy of Pascoli's poetry: pure, perennially a child, suffering because reality is too hard for him.

The pettiness and the violence of the world, the total submission to a materialistic and oppressive father and the gradual loss of all the values he believes in projects Kiin into a parallel world of music; in fact, it will be through music and inspiration - personified by a young woman (Marianne) - that he will rediscover his values and the strength to begin to live again.

The music is based on vintage 70-s keyboards and all sound is similar to classic RPI of that time. Tony Seffusatti (accordion), Patrizia Caramazza (voc), Alessandra Piovera (voc.) were participated in album recording.

Inca - 1993

The second - and final - album of the group Syndone , Inca is definitely the one which comes closest to the acoustics and the progressive rock composition style of the 1970's. Inca isn't a concept album like Spleen, but brings independent, seemingly unrelated pieces together. The only unifying element is a more or less deliberate celebration of the indigenous South American civilization, its rituals and its holocaust.

On Inca, keyboardist Edo Rogani (ex- Empire) joins the original trio of Syndone. Brought in as support during live performances, he's become an integral part of the group and bring in sound characteristic dual keyboards attacks. Hammond, Moog and other keyboards built ELP - like atmosphere with slight jazzy arrangements, not-too-complex compositions and often bombastic vocals.

Later Nik disbanded the group, spend some time playing with blues musicians in London, and established own studio in Turin where he is recording music for adds, theatre, movies, and even solo album.

http://www.progarchives.com/artist.asp?id=2197
Syndone - La Bella e La Bestia (Beauty Is The Beast)
4.25 | 8 ratings | 0 reviews | 25% 5 stars - progarchives.com

The Review:
There is no doubt about it that Syndone leader Nik Comoglio (keyboards and orchestration) brings his rock opera experience to this grand release. It’s Italian trio Syndone’s own spin on The Beauty and the Beast with quite a different view. This concept work has the characters Belle, Father, The Beast, Narrator, and The Rose. Now I want to immediately squash any preconceived notion that this is a spoken word narration, or any sort of traditional story telling recording. It is not. In fact, the entire story is sung by Riccardo Ruggeri, who does a fantastic job of all the characters. At times I thought I was listening to the fabulous Claudio Milano (of Nichelodeon) since Riccardo has a very similar range and expansive vocal skills. To cover such a wide variety of characters (female, male, meek and beastly) by one vocalist takes not only discipline, but years of development. What a talent!
The three main members of Syndone are complimented here by a large number of guests featuring Moody Blues’ Ray Thomas on flute. The large group of musicians include cellos, brass, reeds and full orchestra. The compositions are complex and assorted. They use both ancient and vintage instruments to give all these different looks. The music is equal to the best Italian progressive rock opera style bands of the past and stretches far beyond those boundaries. For me, this is a far more consistent and heavy duty explorative progressive music masterpiece than I would have imagined. There is much happening music wise on “La Bella e La Bestia”, and then you have the story to keep up with. I can tell everyone that if you wish to just listen to the music and vocals, not even understanding or reading along with the story, you’ll have a wonderful listening experience. It has dozens of influences from Gobin, Nichelodeon, Banco, Area, Genesis, PFM, Il Baricentro, and more. With big doses of jazz and classical, some folk, the whole thing is as tight as a blood filled tick.

I am thrilled to find this so similar to one of my favorite Italian theatrical progressive bands Nichelodeon. The atmospheres are diverse and the music is frequently gorgeous, but just as quickly, it rushes you like a rogue wave with jazz fusion or an entry of a magical interlude, then a period piece with orchestra. Adventurous and magnificent in 46 Ѕ minutes, this is HIGHLY RECOMMENDED!

Reviewed by Lee Henderson on October 31st, 2012
http://www.prognaut.com/reviews/syndone2.html
Nik Comoglio: acoustic piano, rhodes piano, hammond, minimoog, distortion kbd, pipe organ, celesta, all keyboards - orchestration
Francesco Pinetti: vibraphone, marimba, timpani, glockenspiel, tubolar bells
Riccardo Ruggeri: vocal & lyrics, interpreting all characters
Special Guest Ray Thomas co-founder of The Moody Blues: flute

Guests:
- Greg Walsh / flute
- Pino Li Trenta / drums
- Federico Marchesano / bass
- Umberto Clerici / cello
- Heike Schuch / cello
- Paola Perardi / cello
- Claudia Ravetto / cello
- Gomalan Brass Quintet / brass
- Paolo Porta / alto sax
- Marco Tardito / baritone sax
- Turin Filarmonica Orchestra



Трекер:  [ 09-Дек-2012 15:09 ]

  

Скачать .torrent

Размер .torrent файла 14 KB


Размер: 330 MB
Хэш (hash) релиза: 4568ff0c642438ffbee551093b0430d18fc59b3d

Еще никто не оставлял запись к записи скачать торрент Syndone - La Bella è la Bestia . Будь первым!

!Обратная связь