Скачать через торрент музыку La! Neu? - Rembrandt - God Strikes Back - 1997, FLAC бесплатно без регистрации torrent

Если у вас наблюдаются проблемы со скриншотами, переходом по ссылками, скачиванием торрентов - проблемы в блокировщике рекламы AdBlock. #хорошегоДня!


Статистика раздачи
Размер:  343 MB   |    Зарегистрирован:  4 года 8 месяцев   |    .torrent скачан:  14 раз   |   
Раздают:  1  
   
Загрузка...
 
Автор Сообщение

Galfimbul

avatar Galfimbul


La! Neu? - Rembrandt / God Strikes Back

Жанр: Krautrock,SpaceRock,RaumRock,Kosmische Rock
Страна-производитель диска: Япония
Год издания: 1997
Издатель (лейбл): Captain Trip Records
Номер по каталогу: CTCD-087
Страна: Германия
Аудиокодек: FLAC (*.flac)
Тип рипа: tracks+.cue
Битрейт аудио: lossless
Продолжительность: 01:07:28
Источник (релизер): WhatCD
Наличие сканов в содержимом раздачи: нет
Треклист:
1 H2O Cantate 1:16
2 Techno Billy I 2:46
3 39°C Ohne Eselin - 102.2°F Without She-Ass 0:50
4 Techno B. II 2:50
5 Nippon Video Geisha 0:29
6 T. B. III 0:17
7 Papst Johannes Paul II 0:20
8 Sun and Moon in Conjunction 0:02
9 Jerusalem 2000 0:11
10 S and M in conjunction II 0:55
11 Johannes Paul III (John Paul III) 0:04
12 God Strikes Back I 2:35
13 God Strikes Back II 2:46
14 God Strikes Back III 1:21
15 Die kranke Eule - The Sick Owl 2:52
16 Frog in UFO 2:17
17 H2O II 3:43
18 Frog Takes Off 1:45
19 Synthesizer Leiser 4:21
20 440 Herz 0:07
21 Radio Vaticana 5:39
22 New York Grand Master Trash Can 2:40
23 Und Dann? / So What? 11:39
24 Information Overload 8:13
Exact Audio Copy V0.99 prebeta 5 from 4. May 2009

EAC extraction logfile from 19. November 2010, 22:21

Rembrandt / God Strikes Back

Used drive : HL-DT-STDVDRAM GH22NS50 Adapter: 2 ID: 0

Read mode : SecureUtilize accurate stream : YesDefeat audio cache : YesMake use of C2 pointers : No

Read offset correction : 667Overread into Lead-In and Lead-Out : NoFill up missing offset samples with silence : YesDelete leading and trailing silent blocks : NoNull samples used in CRC calculations : YesUsed interface : Native Win32 interface for Win NT & 2000Gap handling : Appended to previous track

Used output format : User Defined EncoderSelected bitrate : 320 kBit/sQuality : HighAdd ID3 tag : NoCommand line compressor : C:\Program Files\Exact Audio Copy\Flac\flac.exeAdditional command line options : -V -8 -T "artist=%a" -T "title=%t" -T "album=%g" -T "date=%y" -T "tracknumber=%n" -T "genre=%m" %s

TOC of the extracted CD

Track | Start | Length | Start sector | End sector --------------------------------------------------------- 1 | 0:00.00 | 1:16.45 | 0 | 5744 2 | 1:16.45 | 2:46.15 | 5745 | 18209 3 | 4:02.60 | 0:50.12 | 18210 | 21971 4 | 4:52.72 | 2:50.53 | 21972 | 34774 5 | 7:43.50 | 0:29.35 | 34775 | 36984 6 | 8:13.10 | 0:17.70 | 36985 | 38329 7 | 8:31.05 | 0:20.32 | 38330 | 39861 8 | 8:51.37 | 0:24.50 | 39862 | 41711 9 | 9:16.12 | 0:11.70 | 41712 | 42606 10 | 9:28.07 | 0:55.03 | 42607 | 46734 11 | 10:23.10 | 0:04.30 | 46735 | 47064 12 | 10:27.40 | 2:35.17 | 47065 | 58706 13 | 13:02.57 | 2:46.15 | 58707 | 71171 14 | 15:48.72 | 1:21.70 | 71172 | 77316 15 | 17:10.67 | 2:52.68 | 77317 | 90284 16 | 20:03.60 | 2:17.30 | 90285 | 100589 17 | 22:21.15 | 3:43.07 | 100590 | 117321 18 | 26:04.22 | 1:45.73 | 117322 | 125269 19 | 27:50.20 | 4:21.32 | 125270 | 144876 20 | 32:11.52 | 0:07.43 | 144877 | 145444 21 | 32:19.20 | 5:39.57 | 145445 | 170926 22 | 37:59.02 | 2:40.25 | 170927 | 182951 23 | 40:39.27 | 11:39.30 | 182952 | 235406 24 | 52:18.57 | 8:13.18 | 235407 | 272399 25 | 60:32.00 | 7:08.10 | 272400 | 304509

Track 1

Filename F:\BT\Rembrandt - God Strikes Back (1998) - FLAC\Rembrandt - 01 - H2O Cantate.wav

Pre-gap length 0:00:02.00

Peak level 22.1 % Track quality 100.0 % Test CRC 69A1D42E Copy CRC 69A1D42E Cannot be verified as accurate (confidence 2) [9E94EFFB], AccurateRip returned [752088AF] Copy OK

Track 2

Filename F:\BT\Rembrandt - God Strikes Back (1998) - FLAC\Rembrandt - 02 - Techno Billy I.wav

Peak level 64.5 % Track quality 100.0 % Test CRC 23085C06 Copy CRC 23085C06 Cannot be verified as accurate (confidence 2) [53D41DFB], AccurateRip returned [0CC72B09] Copy OK

Track 3

Filename F:\BT\Rembrandt - God Strikes Back (1998) - FLAC\Rembrandt - 03 - 39°C ohne Eselin.wav

Peak level 11.0 % Track quality 100.0 % Test CRC 2AD2CA05 Copy CRC 2AD2CA05 Cannot be verified as accurate (confidence 2) [B41B6BEA], AccurateRip returned [51366EE4] Copy OK

Track 4

Filename F:\BT\Rembrandt - God Strikes Back (1998) - FLAC\Rembrandt - 04 - Techno B. II.wav

Peak level 85.7 % Track quality 100.0 % Test CRC 31798AE8 Copy CRC 31798AE8 Cannot be verified as accurate (confidence 2) [4941DF93], AccurateRip returned [D98C73CF] Copy OK

Track 5

Filename F:\BT\Rembrandt - God Strikes Back (1998) - FLAC\Rembrandt - 05 - Nippon Video Geisha.wav

Peak level 54.6 % Track quality 100.0 % Test CRC F1E5D8C7 Copy CRC F1E5D8C7 Cannot be verified as accurate (confidence 2) [D12A589D], AccurateRip returned [F6A151B3] Copy OK

Track 6

Filename F:\BT\Rembrandt - God Strikes Back (1998) - FLAC\Rembrandt - 06 - T.B. III.wav

Peak level 95.5 % Track quality 99.4 % Test CRC 0DA06681 Copy CRC 0DA06681 Cannot be verified as accurate (confidence 2) [E1969A72], AccurateRip returned [E9EB13A0] Copy OK

Track 7

Filename F:\BT\Rembrandt - God Strikes Back (1998) - FLAC\Rembrandt - 07 - Papst Johannes Paul II.wav

Peak level 73.5 % Track quality 100.0 % Test CRC 05887781 Copy CRC 05887781 Cannot be verified as accurate (confidence 2) [2545621B], AccurateRip returned [4F102097] Copy OK

Track 8

Filename F:\BT\Rembrandt - God Strikes Back (1998) - FLAC\Rembrandt - 08 - Sun and Moon in Conjunction.wav

Peak level 38.9 % Track quality 100.0 % Test CRC CDFAC4CC Copy CRC CDFAC4CC Cannot be verified as accurate (confidence 2) [1D50C201], AccurateRip returned [F5567F82] Copy OK

Track 9

Filename F:\BT\Rembrandt - God Strikes Back (1998) - FLAC\Rembrandt - 09 - Jerusalem 2000.wav

Peak level 55.0 % Track quality 99.1 % Test CRC 4FD47C53 Copy CRC 4FD47C53 Cannot be verified as accurate (confidence 2) [C924213F], AccurateRip returned [B7872DFD] Copy OK

Track 10

Filename F:\BT\Rembrandt - God Strikes Back (1998) - FLAC\Rembrandt - 10 - S and M in conjunction II.wav

Peak level 46.8 % Track quality 100.0 % Test CRC ECCE40CB Copy CRC ECCE40CB Cannot be verified as accurate (confidence 2) [C5ED6538], AccurateRip returned [684AD6FD] Copy OK

Track 11

Filename F:\BT\Rembrandt - God Strikes Back (1998) - FLAC\Rembrandt - 11 - Johannes Paul III.wav

Peak level 2.4 % Track quality 100.0 % Test CRC 53600792 Copy CRC 53600792 Track not present in AccurateRip database Copy OK

Track 12

Filename F:\BT\Rembrandt - God Strikes Back (1998) - FLAC\Rembrandt - 12 - God Strikes Back I.wav

Peak level 78.9 % Track quality 100.0 % Test CRC 9C9D082D Copy CRC 9C9D082D Cannot be verified as accurate (confidence 2) [3FBB95AE], AccurateRip returned [A271C77C] Copy OK

Track 13

Filename F:\BT\Rembrandt - God Strikes Back (1998) - FLAC\Rembrandt - 13 - God Strikes Back II.wav

Peak level 66.3 % Track quality 100.0 % Test CRC BA0EF782 Copy CRC BA0EF782 Cannot be verified as accurate (confidence 2) [F7EE027C], AccurateRip returned [5D686574] Copy OK

Track 14

Filename F:\BT\Rembrandt - God Strikes Back (1998) - FLAC\Rembrandt - 14 - God Strikes Back III.wav

Peak level 73.6 % Track quality 100.0 % Test CRC 965AA4D3 Copy CRC 965AA4D3 Cannot be verified as accurate (confidence 2) [F1A6BEEA], AccurateRip returned [720BEF22] Copy OK

Track 15

Filename F:\BT\Rembrandt - God Strikes Back (1998) - FLAC\Rembrandt - 15 - Die kranke Eule.wav

Peak level 81.8 % Track quality 100.0 % Test CRC A2D11C24 Copy CRC A2D11C24 Cannot be verified as accurate (confidence 2) [A0C130A6], AccurateRip returned [3D7C352D] Copy OK

Track 16

Filename F:\BT\Rembrandt - God Strikes Back (1998) - FLAC\Rembrandt - 16 - Frog in UFO.wav

Peak level 82.1 % Track quality 100.0 % Test CRC 5B5775A7 Copy CRC 5B5775A7 Cannot be verified as accurate (confidence 2) [1D730045], AccurateRip returned [869CCAA0] Copy OK

Track 17

Filename F:\BT\Rembrandt - God Strikes Back (1998) - FLAC\Rembrandt - 17 - H2O II.wav

Peak level 48.0 % Track quality 100.0 % Test CRC 78BD6809 Copy CRC 78BD6809 Cannot be verified as accurate (confidence 2) [E925ABEF], AccurateRip returned [99B5B95C] Copy OK

Track 18

Filename F:\BT\Rembrandt - God Strikes Back (1998) - FLAC\Rembrandt - 18 - Frog takes off.wav

Peak level 52.8 % Track quality 100.0 % Test CRC D1AB40F5 Copy CRC D1AB40F5 Cannot be verified as accurate (confidence 2) [A77EEC65], AccurateRip returned [A6A0BBAF] Copy OK

Track 19

Filename F:\BT\Rembrandt - God Strikes Back (1998) - FLAC\Rembrandt - 19 - Syntheziser leiser.wav

Peak level 44.3 % Track quality 100.0 % Test CRC A383B478 Copy CRC A383B478 Cannot be verified as accurate (confidence 2) [A36D7379], AccurateRip returned [22A68F3C] Copy OK

Track 20

Filename F:\BT\Rembrandt - God Strikes Back (1998) - FLAC\Rembrandt - 20 - 440 Herz.wav

Peak level 4.4 % Track quality 100.0 % Test CRC 412DD0E8 Copy CRC 412DD0E8 Cannot be verified as accurate (confidence 2) [C090656E], AccurateRip returned [B33D798D] Copy OK

Track 21

Filename F:\BT\Rembrandt - God Strikes Back (1998) - FLAC\Rembrandt - 21 - Radio Vaticana.wav

Peak level 90.3 % Track quality 100.0 % Test CRC B1DEE1F8 Copy CRC B1DEE1F8 Cannot be verified as accurate (confidence 2) [F8F89A58], AccurateRip returned [D1B826C3] Copy OK

Track 22

Filename F:\BT\Rembrandt - God Strikes Back (1998) - FLAC\Rembrandt - 22 - New York GrandMasterTrashCan.wav

Peak level 98.6 % Track quality 100.0 % Test CRC 7A532DD4 Copy CRC 7A532DD4 Cannot be verified as accurate (confidence 2) [B5F9182D], AccurateRip returned [9A7DCB88] Copy OK

Track 23

Filename F:\BT\Rembrandt - God Strikes Back (1998) - FLAC\Rembrandt - 23 - Und dann .wav

Peak level 98.6 % Track quality 100.0 % Test CRC 55666751 Copy CRC 55666751 Cannot be verified as accurate (confidence 2) [8D8AAD90], AccurateRip returned [E6451CFB] Copy OK

Track 24

Filename F:\BT\Rembrandt - God Strikes Back (1998) - FLAC\Rembrandt - 24 - Information Overload.wav

Peak level 98.5 % Track quality 100.0 % Test CRC E330FEAC Copy CRC E330FEAC Cannot be verified as accurate (confidence 2) [8FD22510], AccurateRip returned [B3790BEE] Copy OK

Track 25

Filename F:\BT\Rembrandt - God Strikes Back (1998) - FLAC\Rembrandt - 25 - Kiss me stupid!.wav

Peak level 17.3 % Track quality 100.0 % Test CRC 095DFB22 Copy CRC 095DFB22 Track not present in AccurateRip database Copy OK

23 track(s) could not be verified as accurate 2 track(s) not present in the AccurateRip database

No tracks could be verified as accurateYou may have a different pressing from the one(s) in the database

No errors occurred

End of status report
Доп. информация: http://www.youtube.com/watch?v=AvZ9snYhc38

Трекер:  [ 09-Дек-2012 15:07 ]

  

Скачать .torrent

Размер .torrent файла 32 KB


Размер: 343 MB
Хэш (hash) релиза: c3d0d937c60f50de0d4ff633cbdc53cf858d87ff

Еще никто не оставлял запись к записи скачать торрент La! Neu? - Rembrandt - God Strikes Back - 1997, FLAC . Будь первым!

!Обратная связь