Скачать через торрент музыку Boulez Conducts Zappa - The Perfect Stranger бесплатно без регистрации torrent

Если у вас наблюдаются проблемы со скриншотами, переходом по ссылками, скачиванием торрентов - проблемы в блокировщике рекламы AdBlock. #хорошегоДня!


Статистика раздачи
Размер:  171 MB   |    Зарегистрирован:  4 года 8 месяцев   |    .torrent скачан:  20 раз   |   
Раздают:  1  
   
Загрузка...
 
Автор Сообщение

Galfimbul

avatar Galfimbul


Boulez Conducts Zappa / The Perfect Stranger (2012)

Жанр: Modern Classical, Electronic
Страна-производитель диска: US
Год издания: 2012
Издатель (лейбл): Zappa Records
Номер по каталогу: ZR 3869
Страна: US
Аудиокодек: FLAC (*.flac)
Тип рипа: image+.cue
Битрейт аудио: lossless
Продолжительность: 37:11
Источник (релизер): собственный рип с фирменного диска
Наличие сканов в содержимом раздачи: да
Треклист:
1. The Perfect Stranger 12:45
2. Naval Aviation In Art? 2:45
3. The Girl In The Magnesium Dress 3:13
4. Dupree's Paradise 7:54
5. Love Story 0:59
6. Outside Now Again 4:06
7. Jonestown 5:29
Exact Audio Copy V1.0 beta 3 from 29. August 2011

EAC extraction logfile from 24. November 2012, 21:59

Zappa / Boulez / Boulez Conducts Zappa: The Perfect Stranger

Used drive : MATSHITADVD-RAM UJ-860S Adapter: 1 ID: 0

Read mode : SecureUtilize accurate stream : YesDefeat audio cache : YesMake use of C2 pointers : No

Read offset correction : 102Overread into Lead-In and Lead-Out : NoFill up missing offset samples with silence : YesDelete leading and trailing silent blocks : NoNull samples used in CRC calculations : YesUsed interface : Native Win32 interface for Win NT & 2000

Used output format : User Defined EncoderSelected bitrate : 128 kBit/sQuality : HighAdd ID3 tag : NoCommand line compressor : C:\Program Files\Exact Audio Copy\Flac\flac.exeAdditional command line options : -V -8 -T "Date=%year%" -T "Genre=%genre%" %source%

TOC of the extracted CD

Track | Start | Length | Start sector | End sector --------------------------------------------------------- 1 | 0:00.00 | 12:45.31 | 0 | 57405 2 | 12:45.31 | 2:45.05 | 57406 | 69785 3 | 15:30.36 | 3:13.06 | 69786 | 84266 4 | 18:43.42 | 7:54.00 | 84267 | 119816 5 | 26:37.42 | 0:58.61 | 119817 | 124227 6 | 27:36.28 | 4:05.51 | 124228 | 142653 7 | 31:42.04 | 5:29.07 | 142654 | 167335

Range status and errors

Selected range

Filename C:\FZ\1984-#39.The_Perfect_Stranger\CD.wav

Peak level 95.7 % Extraction speed 2.3 X Range quality 100.0 % Test CRC E25AC490 Copy CRC E25AC490 Copy OK

No errors occurred

AccurateRip summary

Track 1 not present in databaseTrack 2 not present in databaseTrack 3 not present in databaseTrack 4 not present in databaseTrack 5 not present in databaseTrack 6 not present in databaseTrack 7 not present in database

None of the tracks are present in the AccurateRip database

End of status report

==== Log checksum 8809469B67FC078FBBCAA38ABFC0F0C310339543D34A5DEA5EDB16D3C1A67FAC ====


Трекер:  [ 09-Дек-2012 15:06 ]

  

Скачать .torrent

Размер .torrent файла 27 KB


Размер: 171 MB
Хэш (hash) релиза: 1b655a55ecbb22b6609cf615f5ca5f98091b81c0

Еще никто не оставлял запись к записи скачать торрент Boulez Conducts Zappa - The Perfect Stranger . Будь первым!

!Обратная связь