Скачать через торрент музыку Pink Floyd - Animals бесплатно без регистрации torrent

Если у вас наблюдаются проблемы со скриншотами, переходом по ссылками, скачиванием торрентов - проблемы в блокировщике рекламы AdBlock. #хорошегоДня!


Статистика раздачи
Размер:  228 MB   |    Зарегистрирован:  4 года 11 месяцев   |    .torrent скачан:  69 раз   |   
Раздают:  1  
   
Загрузка...
 
Автор Сообщение

Galfimbul

avatar Galfimbul


Pink Floyd / Animals (4th Issue 1A CK34474 14 A [CMU P 67])

Жанр: Psychodelic Art- Rock
Страна-производитель диска: USA
Год издания: 1992 (4th issue)
Издатель (лейбл): COLUMBIA
Номер по каталогу: CK 34474
Страна: UK
Аудиокодек: FLAC (*.flac)
Тип рипа: tracks+.cue
Битрейт аудио: lossless
Продолжительность: 41:48
Источник (релизер): Мой рип
Наличие сканов в содержимом раздачи: нет
Треклист:
1. Pigs On The Wing (p.I)
2. Dogs
3. Pigs (Three Different Ones)
4. Sheep
5. Pigs On The Wing (p.II)
X Lossless Decoder version 20121027 (142.1)

XLD extraction logfile from 2012-11-27 23:22:40 +0400

Pink Floyd / Animals

Used drive : MATSHITA DVD-R UJ-8A8 (revision HB14)

Ripper mode : XLD Secure RipperDisable audio cache : OK for the drive with a cache less than 1375KiBMake use of C2 pointers : NORead offset correction : 102Max retry count : 100Gap status : Analyzed, Appended

TOC of the extracted CD Track | Start | Length | Start sector | End sector --------------------------------------------------------- 1 | 00:00:00 | 01:24:57 | 0 | 6356 2 | 01:24:57 | 17:06:55 | 6357 | 83361 3 | 18:31:37 | 11:29:65 | 83362 | 135101 4 | 30:01:27 | 10:19:03 | 135102 | 181529 5 | 40:20:30 | 01:27:72 | 181530 | 188126

AccurateRip Summary (DiscID: 0009122e-002b5445-2c09cc05) Track 01 : OK (v1, confidence 20/181) Track 02 : OK (v1, confidence 20/174) Track 03 : OK (v1, confidence 20/184) Track 04 : OK (v1, confidence 20/176) Track 05 : OK (v1, confidence 18/183) ->All tracks accurately ripped.

All Tracks Album gain : -2.06 dB Peak : 0.803986 Statistics Read error : 0 Jitter error (maybe fixed) : 0 Retry sector count : 2 Damaged sector count : 0

Track 01 Filename : /Users/dmitrykolosov/Music/Pink Floyd - Studio Discography/1977 Animals/Pink Floyd - Animals (1977) [FLAC]/01 Pigs On The Wing (Part One).flac Pre-gap length : 00:02:00

Track gain : 2.95 dB Peak : 0.602570 CRC32 hash (test run) : A4A0EC1F CRC32 hash : A4A0EC1F CRC32 hash (skip zero) : D4A043E9 AccurateRip v1 signature : 3DC962F7 AccurateRip v2 signature : BCC89B66 ->Accurately ripped (v1, confidence 20/181) Statistics Read error : 0 Jitter error (maybe fixed) : 0 Retry sector count : 0 Damaged sector count : 0

Track 02 Filename : /Users/dmitrykolosov/Music/Pink Floyd - Studio Discography/1977 Animals/Pink Floyd - Animals (1977) [FLAC]/02 Dogs.flac

Track gain : -2.66 dB Peak : 0.803986 CRC32 hash (test run) : DE1B01D2 CRC32 hash : DE1B01D2 CRC32 hash (skip zero) : 1CCC9C9C AccurateRip v1 signature : 33237FAA AccurateRip v2 signature : 556DB406 ->Accurately ripped (v1, confidence 20/174) Statistics Read error : 0 Jitter error (maybe fixed) : 0 Retry sector count : 2 Damaged sector count : 0

Track 03 Filename : /Users/dmitrykolosov/Music/Pink Floyd - Studio Discography/1977 Animals/Pink Floyd - Animals (1977) [FLAC]/03 Pigs (Three Different Ones).flac Pre-gap length : 00:01:65

Track gain : -0.23 dB Peak : 0.714630 CRC32 hash (test run) : 61656314 CRC32 hash : 61656314 CRC32 hash (skip zero) : 86F26452 AccurateRip v1 signature : 053EB906 AccurateRip v2 signature : 2B9B967C ->Accurately ripped (v1, confidence 20/184) Statistics Read error : 0 Jitter error (maybe fixed) : 0 Retry sector count : 0 Damaged sector count : 0

Track 04 Filename : /Users/dmitrykolosov/Music/Pink Floyd - Studio Discography/1977 Animals/Pink Floyd - Animals (1977) [FLAC]/04 Sheep.flac

Track gain : -2.29 dB Peak : 0.746002 CRC32 hash (test run) : 237909FF CRC32 hash : 237909FF CRC32 hash (skip zero) : B71FCA56 AccurateRip v1 signature : 93A0ACB1 AccurateRip v2 signature : 1A0A6F53 ->Accurately ripped (v1, confidence 20/176) Statistics Read error : 0 Jitter error (maybe fixed) : 0 Retry sector count : 0 Damaged sector count : 0

Track 05 Filename : /Users/dmitrykolosov/Music/Pink Floyd - Studio Discography/1977 Animals/Pink Floyd - Animals (1977) [FLAC]/05 Pigs On The Wing (Part Two).flac

Track gain : 5.57 dB Peak : 0.419525 CRC32 hash (test run) : 42F89F9F CRC32 hash : 42F89F9F CRC32 hash (skip zero) : 494473C3 AccurateRip v1 signature : 9359F461 AccurateRip v2 signature : 5D2112E1 ->Accurately ripped (v1, confidence 18/183) Statistics Read error : 0 Jitter error (maybe fixed) : 0 Retry sector count : 0 Damaged sector count : 0

No errors occurred

End of status report
TITLE "Animals"PERFORMER "Pink Floyd"REM GENRE "Rock"REM DATE "1977"REM DISCNUMBER 1REM TOTALDISCS 1REM DISCID 2C09CC05REM REPLAYGAIN_ALBUM_GAIN -2.06 dBREM REPLAYGAIN_ALBUM_PEAK 0.803986FILE "01 Pigs On The Wing (Part One).flac" WAVE TRACK 01 AUDIO TITLE "Pigs On The Wing (Part One)" SONGWRITER "Roger Waters" REM REPLAYGAIN_TRACK_GAIN 2.95 dB REM REPLAYGAIN_TRACK_PEAK 0.602570 INDEX 01 00:00:00FILE "02 Dogs.flac" WAVE TRACK 02 AUDIO TITLE "Dogs" SONGWRITER "David Gilmour" REM REPLAYGAIN_TRACK_GAIN -2.66 dB REM REPLAYGAIN_TRACK_PEAK 0.803986 INDEX 01 00:00:00 TRACK 03 AUDIO TITLE "Pigs (Three Different Ones)" SONGWRITER "Roger Waters" REM REPLAYGAIN_TRACK_GAIN -0.23 dB REM REPLAYGAIN_TRACK_PEAK 0.714630 INDEX 00 17:04:65FILE "03 Pigs (Three Different Ones).flac" WAVE INDEX 01 00:00:00FILE "04 Sheep.flac" WAVE TRACK 04 AUDIO TITLE "Sheep" SONGWRITER "Roger Waters" REM REPLAYGAIN_TRACK_GAIN -2.29 dB REM REPLAYGAIN_TRACK_PEAK 0.746002 INDEX 01 00:00:00FILE "05 Pigs On The Wing (Part Two).flac" WAVE TRACK 05 AUDIO TITLE "Pigs On The Wing (Part Two)" SONGWRITER "Roger Waters" REM REPLAYGAIN_TRACK_GAIN 5.57 dB REM REPLAYGAIN_TRACK_PEAK 0.419525 INDEX 01 00:00:00
Доп. информация: Pressing Plant: Columbia Records, Pitman, New Jersey
Production Mastering: Sony mastering 1A
Release Date: 1992
Release Information: Fourth U.S. release. On the back of the CD cover is a vertical white strip down the left side that has nothing in the top or middle, and the bar code at the bottom.
Total Time: 41:48
Track Peak Levels: 60.2 / 80.4 / 71.4 / 74.5 / 41.9

Трекер:  [ 09-Дек-2012 15:06 ]

  

Скачать .torrent

Размер .torrent файла 36 KB


Размер: 228 MB
Хэш (hash) релиза: fa492d45778e58684ceb0502fccda45f73bed825

Торренты, похожие на Pink Floyd - Animals скачать торрент

Форум Название Автор Размер S L Добавлен
Rосk | Mеtаl | Аltеrnаtivе, Рunk, Indереndеnt (losslеss) ·· (Progressive Rock) Pink Floyd - Animals aux Abattoirs (Bootleg - 1977.02.25) - 1977, FLAC (tracks+.cue), lossless Galfimbul 767695812732 MB 0 0 1365238755

11:59

6-Апр-13

Зарубежный Rock ·· (Progressive Rock, Psychedelic Rock, Art Rock) Pink Floyd - Animals [6th JPN issue] [Remastered] (1998 Sony Records, SRCS 8484) - 1977, FLAC (image+.cue), lossless _N_ 279228355266 MB 0 0 1346173440

20:04

28-Авг-12

Электронная музыка ·· (Trance) Pink Floyd - Animals (Limited Edition Trance remix) - 1995, FLAC (image+.cue), lossless _N_ 425261677406 MB 0 0 1341662760

15:06

7-Июл-12

Электронная музыка ·· (Electronic) Pink Floyd - Animals (Limited Edition Trance remix) - 1990-2000, FLAC (image+.cue), lossless _N_ 424928120405 MB 0 0 1340782020

10:27

27-Июн-12

Rосk | Mеtаl | Аltеrnаtivе, Рunk, Indереndеnt (losslеss) ·· (Psychedelic Rock) Pink Floyd - Animals [Germany Remastered Edition 2004/ Cardboard Sleeve/ EMI Electro 1C 064-98 434] - 1977, APE (image+.cue), lossless Galfimbul 335523425320 MB 0 0 1297859007

15:23

16-Фев-11

Rосk | Mеtаl | Аltеrnаtivе, Рunk, Indереndеnt (losslеss) ·· (Psychedelic Rock) Pink Floyd - Animals [Japanese Remastered Edition 2001/ TOCP-65741] - 1977, FLAC (image+.cue), lossless Galfimbul 346478608330 MB 0 0 1297858610

15:16

16-Фев-11

Rосk | Mеtаl | Аltеrnаtivе, Рunk, Indереndеnt (mр3) ·· (Progressive Rock) VA - More Animals at the Gates of Reason - A Tribute to Pink Floyd (2CD) - 2013, MP3, 320 kbps Galfimbul 367416122350 MB 0 0 1372451694

23:34

28-Июн-13

Rосk | Mеtаl | Аltеrnаtivе, Рunk, Indереndеnt (losslеss) ·· (Psychedelic Rock) Pink Floyd - Hunting Animals In Berlin [2 CD] - 1977, FLAC (tracks+.cue), lossless Galfimbul 610424756582 MB 0 0 1321261268

12:01

14-Ноя-11

Еще никто не оставлял запись к записи скачать торрент Pink Floyd - Animals . Будь первым!

!Обратная связь