Скачать через торрент музыку Neptune Massive - Neptune Massive - 2012, FLAC бесплатно без регистрации torrent

Если у вас наблюдаются проблемы со скриншотами, переходом по ссылками, скачиванием торрентов - проблемы в блокировщике рекламы AdBlock. #хорошегоДня!


Статистика раздачи
Размер:  247 MB   |    Зарегистрирован:  4 года 8 месяцев   |    .torrent скачан:  6 раз   |   
Раздают:  1  
   
Загрузка...
 
Автор Сообщение

Galfimbul

avatar Galfimbul


Neptune Massive / Neptune Massive

Жанр: Electronic / Space Rock
Страна-производитель диска: USA
Год издания: 2012
Издатель (лейбл): Laser Base Records
Номер по каталогу: LBR 01
Страна: USA
Аудиокодек: FLAC (*.flac)
Тип рипа: image+.cue
Битрейт аудио: lossless
Продолжительность: 00:39:53
Источник (релизер): собственный диск
Наличие сканов в содержимом раздачи: да
Треклист:
1. Prologue
2. Plastoon
3. Metrics
4. Eldridge Dewitt
5. Polaris
Exact Audio Copy V0.99 prebeta 5 from 4. May 2009

Отчёт EAC об извлечении, выполненном 26. ноября 2012, 19:48

Neptune Massive / Neptune Massive

Дисковод: ASUS DRW-24B3ST Adapter: 1 ID: 0

Режим чтения : ДостоверностьИспользование точного потока : ДаОтключение кэша аудио : ДаИспользование указателей C2 : Нет

Коррекция смещения при чтении : 6Способность читать области Lead-in и Lead-out : НетЗаполнение пропущенных сэмплов тишиной : ДаУдаление блоков с тишиной в начале и конце : НетПри вычислениях CRC использовались нулевые сэмплы : ДаИнтерфейс : Встроенный Win32-интерфейс для Win NT/2000

Выходной формат : Внутренние WAV-операцииФормат сэмплов : 44.100 Гц; 16 бит; стерео

TOC извлечённого CD

Трек | Старт | Длительность | Начальный сектор | Конечный сектор --------------------------------------------------------------------- 1 | 0:00.00 | 2:38.46 | 0 | 11895 2 | 2:38.46 | 6:41.73 | 11896 | 42043 3 | 9:20.44 | 9:43.61 | 42044 | 85829 4 | 19:04.30 | 8:08.47 | 85830 | 122476 5 | 27:13.02 | 12:40.27 | 122477 | 179503

Характеристики диапазона извлечения и сообщения об ошибках

Выбранный диапазон

Имя файла E:\Neptune Massive - Neptune Massive.wav

Пиковый уровень 98.8 % Качество диапазона 100.0 % CRC теста E69D1602 CRC копии E69D1602 Копирование... OK

Ошибок не произошло

AccurateRip: сводка

Трек 1 нет в базе данныхТрек 2 нет в базе данныхТрек 3 нет в базе данныхТрек 4 нет в базе данныхТрек 5 нет в базе данных

Ни одного трека нет в базе AccurateRip

Конец отчёта
REM GENRE InstrumentalREM DATE 2012REM DISCID 31095905REM COMMENT "ExactAudioCopy v0.99pb5"PERFORMER "Neptune Massive"TITLE "Neptune Massive"FILE "Neptune Massive - Neptune Massive.flac" WAVE TRACK 01 AUDIO TITLE "Prologue" PERFORMER "Neptune Massive" FLAGS DCP INDEX 01 00:00:00 TRACK 02 AUDIO TITLE "Plastoon" PERFORMER "Neptune Massive" FLAGS DCP INDEX 01 02:38:46 TRACK 03 AUDIO TITLE "Metrics" PERFORMER "Neptune Massive" FLAGS DCP INDEX 01 09:20:44 TRACK 04 AUDIO TITLE "Eldridge Dewitt" PERFORMER "Neptune Massive" FLAGS DCP INDEX 01 19:04:30 TRACK 05 AUDIO TITLE "Polaris" PERFORMER "Neptune Massive" FLAGS DCP INDEX 01 27:13:02
Доп. информация: More About Album

Трекер:  [ 09-Дек-2012 15:06 ]

  

Скачать .torrent

Размер .torrent файла 78 KB


Размер: 247 MB
Хэш (hash) релиза: c392aceed347fac685f10190e10cd5d5b06a0953

Еще никто не оставлял запись к записи скачать торрент Neptune Massive - Neptune Massive - 2012, FLAC . Будь первым!

!Обратная связь