Скачать через торрент музыку Jimi Jamison бесплатно без регистрации torrent

Если у вас наблюдаются проблемы со скриншотами, переходом по ссылками, скачиванием торрентов - проблемы в блокировщике рекламы AdBlock. #хорошегоДня!


Статистика раздачи
Размер:  445 MB   |    Зарегистрирован:  4 года 11 месяцев   |    .torrent скачан:  15 раз   |   
Раздают:  1  
   
Загрузка...
 
Автор Сообщение

Galfimbul

avatar Galfimbul


Jimi Jamison / Never Too Late (2012)

Жанр: Melodic Rock/AOR
Страна-производитель диска: Japan
Год издания: 2012
Издатель (лейбл): Avalon
Номер по каталогу: MICP-11067
Страна: U.S.A
Аудиокодек: FLAC (*.flac)
Тип рипа: image+.cue
Битрейт аудио: lossless
Продолжительность: 52:43
Источник (релизер): собственный рип
Наличие сканов в содержимом раздачи: да

Треклист:
1. Everybody's Got a Broken Heart
2. The Great Unknown
3. Never Too Late
4. I Can't Turn Back
5. Street Survivor
6. The Air I Breathe
7. Not Tonight
8. Calling the Game
9. Bullet In The Gun
10. Heaven Call Your Name
11. Walk On (Wildest Dreams)
12. Everybody's Got A Broken Heart (acoustic) - bonus track
Exact Audio Copy V1.0 beta 3 from 29. August 2011

EAC extraction logfile from 7. November 2012, 14:18

Jimi Jamison / Never Too Late

Used drive : SlimtypeDVD A DS8A5SH Adapter: 0 ID: 1

Read mode : SecureUtilize accurate stream : YesDefeat audio cache : YesMake use of C2 pointers : No

Read offset correction : 6Overread into Lead-In and Lead-Out : NoFill up missing offset samples with silence : YesDelete leading and trailing silent blocks : NoNull samples used in CRC calculations : YesUsed interface : Native Win32 interface for Win NT & 2000

Used output format : User Defined EncoderSelected bitrate : 320 kBit/sQuality : HighAdd ID3 tag : NoCommand line compressor : C:\Program Files (x86)\Exact Audio Copy\Flac\flac.exeAdditional command line options : -V -8 -T "Date=%year%" -T "Genre=%genre%" %source%

TOC of the extracted CD

Track | Start | Length | Start sector | End sector --------------------------------------------------------- 1 | 0:00.00 | 3:38.31 | 0 | 16380 2 | 3:38.31 | 4:03.20 | 16381 | 34625 3 | 7:41.51 | 4:56.47 | 34626 | 56872 4 | 12:38.23 | 4:18.45 | 56873 | 76267 5 | 16:56.68 | 4:06.55 | 76268 | 94772 6 | 21:03.48 | 4:42.52 | 94773 | 115974 7 | 25:46.25 | 5:57.38 | 115975 | 142787 8 | 31:43.63 | 4:32.39 | 142788 | 163226 9 | 36:16.27 | 4:24.68 | 163227 | 183094 10 | 40:41.20 | 4:10.30 | 183095 | 201874 11 | 44:51.50 | 4:13.24 | 201875 | 220873 12 | 49:04.74 | 3:37.48 | 220874 | 237196

Range status and errors

Selected range

Filename D:\My Music\Jimi Jamison - 2012 Never Too Late\Jimi Jamison - Never Too Late.wav

Peak level 99.2 % Extraction speed 4.3 X Range quality 99.9 % Test CRC C02902C6 Copy CRC C02902C6 Copy OK

No errors occurred

AccurateRip summary

Track 1 not present in databaseTrack 2 not present in databaseTrack 3 not present in databaseTrack 4 not present in databaseTrack 5 not present in databaseTrack 6 not present in databaseTrack 7 not present in databaseTrack 8 not present in databaseTrack 9 not present in databaseTrack 10 not present in databaseTrack 11 not present in databaseTrack 12 not present in database

None of the tracks are present in the AccurateRip database

End of status report

==== Log checksum 45522B3FBE138C66C390077EADC57CE198FAC77232679CB8F8A2FD72C992708A ====
Jimi Jamison - Lead Vocals
Erik Martensson (Eclipse, W.E.T.) - Guitars, Bass, Keyboards & Backing Vocals
Magnus Ulfstedt (Eclipse, Lion's Share) - Drums
Jonas Oijvall - Hammond B3, Piano & Analog Synthesizers
Magnus Henriksson (Eclipse) - Lead Guitar on tracks 5 & 10


Трекер:  [ 09-Дек-2012 15:06 ]

  

Скачать .torrent

Размер .torrent файла 18 KB


Размер: 445 MB
Хэш (hash) релиза: 56af7167d6e0cb23d072e00868569299f60b121b

Торренты, похожие на Jimi Jamison скачать торрент

Форум Название Автор Размер S L Добавлен
Rосk | Mеtаl | Аltеrnаtivе, Рunk, Indереndеnt (mр3) ·· (Melodic Rock | AOR) Torch - The Music Remembers Jimi Jamison & Fergie Frederiksen - 2015, MP3, 320 kbps Galfimbul 167036069159 MB 0 0 1434317903

00:38

15-Июн-15

Rосk | Mеtаl | Аltеrnаtivе, Рunk, Indереndеnt (losslеss) ·· (Melodic Hard Rock) Jimi Jamison & Jim Peterik - Extra Moments - 2010 (Ex. members group Survivor), APE (image+.cue), lossless Galfimbul 350607196334 MB 0 0 1297876246

20:10

16-Фев-11

Еще никто не оставлял запись к записи скачать торрент Jimi Jamison . Будь первым!

!Обратная связь