Скачать через торрент музыку AOR - L.A Reflection - 2002 бесплатно без регистрации torrent

Если у вас наблюдаются проблемы со скриншотами, переходом по ссылками, скачиванием торрентов - проблемы в блокировщике рекламы AdBlock. #хорошегоДня!


Статистика раздачи
Размер:  549 MB   |    Зарегистрирован:  4 года 10 месяцев   |    .torrent скачан:  16 раз   |   
Раздают:  1  
   
Загрузка...
 
Автор Сообщение

Galfimbul

avatar Galfimbul


AOR / L.A Reflection (2002)

Жанр: Westcoast/AOR
Страна-производитель диска: Germany
Год издания: 2012
Издатель (лейбл): Yesterrock
Номер по каталогу: Y-2012-36
Страна: France
Аудиокодек: FLAC (*.flac)
Тип рипа: image+.cue
Битрейт аудио: lossless
Продолжительность: 75:52
Источник (релизер): собственный рип
Наличие сканов в содержимом раздачи: да

Треклист:
1. If No One Cared - 3:51
2. Sensation - 3:59
3. Never Gonna Let Her Go - 5:50
4. So Young And Innocent - 4:21
5. A Quiet Storm - 4:16
6. How Will She Find Her Way Back? - 4:21
7. Worlds Away - 6:00
8. Leave Her To Heaven - 4:25
9. Dream Them Away - 4:01
10. I Know You Too Well - 3:57
11. Far Away From The Storm - 4:27
12. 5492 (New Version - instrumental)- 5:34
13. Secrets In Her Heart (bonus track) - 3:52
14. Never Gonna Let Her Go (Michael Landau Mix, bonus track) - 5:52
15. Listen To Your Heart (extra bonus track) - 5:33
16. Mary Ann (extra bonus track) - 4:40
Exact Audio Copy V1.0 beta 3 from 29. August 2011

EAC extraction logfile from 8. November 2012, 17:48

AOR / L.A Reflection

Used drive : SlimtypeDVD A DS8A5SH Adapter: 0 ID: 1

Read mode : SecureUtilize accurate stream : YesDefeat audio cache : YesMake use of C2 pointers : No

Read offset correction : 6Overread into Lead-In and Lead-Out : NoFill up missing offset samples with silence : YesDelete leading and trailing silent blocks : NoNull samples used in CRC calculations : YesUsed interface : Native Win32 interface for Win NT & 2000

Used output format : User Defined EncoderSelected bitrate : 320 kBit/sQuality : HighAdd ID3 tag : NoCommand line compressor : C:\Program Files (x86)\Exact Audio Copy\Flac\flac.exeAdditional command line options : -V -8 -T "Genre=%genre%" -T "Artist=%artist%" -T "Title=%title%" -T "Album=%albumtitle%" -T "Date=%year%" -T "Tracknumber=%tracknr%" -T "Comment=%comment%" %source%

TOC of the extracted CD

Track | Start | Length | Start sector | End sector --------------------------------------------------------- 1 | 0:00.00 | 3:55.01 | 0 | 17625 2 | 3:55.01 | 4:03.01 | 17626 | 35851 3 | 7:58.02 | 5:54.01 | 35852 | 62402 4 | 13:52.03 | 4:25.01 | 62403 | 82278 5 | 18:17.04 | 4:20.01 | 82279 | 101779 6 | 22:37.05 | 4:25.01 | 101780 | 121655 7 | 27:02.06 | 6:04.01 | 121656 | 148956 8 | 33:06.07 | 4:29.01 | 148957 | 169132 9 | 37:35.08 | 4:05.01 | 169133 | 187508 10 | 41:40.09 | 4:01.01 | 187509 | 205584 11 | 45:41.10 | 4:31.01 | 205585 | 225910 12 | 50:12.11 | 5:38.01 | 225911 | 251261 13 | 55:50.12 | 3:56.01 | 251262 | 268962 14 | 59:46.13 | 5:53.01 | 268963 | 295438 15 | 65:39.14 | 5:33.01 | 295439 | 320414 16 | 71:12.15 | 4:40.01 | 320415 | 341415

Range status and errors

Selected range

Filename D:\My Music\AOR - 2002 L.A Reflection\AOR - L.A Reflection.wav

Peak level 100.0 % Extraction speed 5.2 X Range quality 100.0 % Test CRC 469B7B53 Copy CRC 469B7B53 Copy OK

No errors occurred

AccurateRip summary

Track 1 not present in databaseTrack 2 not present in databaseTrack 3 not present in databaseTrack 4 not present in databaseTrack 5 not present in databaseTrack 6 not present in databaseTrack 7 not present in databaseTrack 8 not present in databaseTrack 9 not present in databaseTrack 10 not present in databaseTrack 11 not present in databaseTrack 12 not present in databaseTrack 13 not present in databaseTrack 14 not present in databaseTrack 15 not present in databaseTrack 16 not present in database

None of the tracks are present in the AccurateRip database

End of status report

==== Log checksum 7B237E08A7B0D3347F8484B47BA3BC094ADF24B6EAADB1A867A91DC44F722D1E ====
Frédéric SLAMA - guitars & keyboards
Tommy DENANDER - All Instruments
Lead Vocals:
Goran EDMAN (2,8), Rick RISO (3,14), David CHAMBERLIN (1,4,6,9,10,11,13), Chris ANTBLAD (5), Michael KISUR (15,16), Michael RUFF (7)
Guitars:
Steve LUKATHER, André HAROLD, James HARRAH, Michael LANDAU, Bruce GAITSCH
Keyboards:
Steve PORCARO, David PAICH, David DIGGS
Bass:
Michael PORCARO, Eddie WATKINS JR., Hussain JIFFRY
Drums:
Jeff PORCARO, Vinnie COLAIUTA, Ed GREENE
Saxophone:
Tom SAVIANO, Dave BORUFF
Backing vocals:
Rachel DIGGS, Tom BAILEY, Kristoffer LAGERSTRÖM


Трекер:  [ 09-Дек-2012 15:06 ]

  

Скачать .torrent

Размер .torrent файла 11 KB


Размер: 549 MB
Хэш (hash) релиза: aee4fd681584162539e996e05f1dec6efea91d32

Еще никто не оставлял запись к записи скачать торрент AOR - L.A Reflection - 2002 . Будь первым!

!Обратная связь