Скачать через торрент музыку Hugo бесплатно без регистрации torrent

Если у вас наблюдаются проблемы со скриншотами, переходом по ссылками, скачиванием торрентов - проблемы в блокировщике рекламы AdBlock. #хорошегоДня!


Статистика раздачи
Размер:  1.35 GB   |    Зарегистрирован:  4 года 11 месяцев   |    .torrent скачан:  43 раза   |   
Раздают:  1  
   
Загрузка...
 
Автор Сообщение

Galfimbul

avatar Galfimbul


Hugo
Дискография 1997-2004

Жанр: Melodic Rock/AOR
Страна-производитель дисков: Japan
Страна: U.S.A
Аудиокодек: FLAC (*.flac)
Тип рипа: image+.cue
Битрейт аудио: lossless
Продолжительность: 1 час 31 минута
Источник (релизер): собственные рипы с личных CD
Наличие сканов в содержимом раздачи: да

Продолжительность: 48:18

Треклист:
1. Intro - 0:51
2. We'll Find A Way - 4:44
3. Walk Away - 5:09
4. So Many Tears Ago - 4:59
5. Crazy - 3:31
6. All That You Wanted - 5:19
7. All The People You Love - 4:29
8. If You're Ever Lonely - 4:08
9. Desire - 4:46
10. Standing Alone - 4:52
11. A Tear In L.A. - 5:26

Produced and Mixed by Hugo & Gary Hughes

Состав группы:
Hugo - vocals, additional piano, strings & things
Gary Hughes (Ten) - bass, additional piano, strings & things
Vinny Burns (Ten) - guitars
Ged Rylands (Ten) - piano, keys
Greg Morgan (Ten) - drums
Exact Audio Copy V1.0 beta 3 from 29. August 2011

EAC extraction logfile from 9. November 2012, 22:33

Hugo / Hugo

Used drive : SlimtypeDVD A DS8A5SH Adapter: 0 ID: 1

Read mode : SecureUtilize accurate stream : YesDefeat audio cache : YesMake use of C2 pointers : No

Read offset correction : 6Overread into Lead-In and Lead-Out : NoFill up missing offset samples with silence : YesDelete leading and trailing silent blocks : NoNull samples used in CRC calculations : YesUsed interface : Native Win32 interface for Win NT & 2000

Used output format : User Defined EncoderSelected bitrate : 320 kBit/sQuality : HighAdd ID3 tag : NoCommand line compressor : C:\Program Files (x86)\Exact Audio Copy\Flac\flac.exeAdditional command line options : -V -8 -T "Date=%year%" -T "Genre=%genre%" %source%

TOC of the extracted CD

Track | Start | Length | Start sector | End sector --------------------------------------------------------- 1 | 0:00.00 | 0:51.67 | 0 | 3891 2 | 0:51.67 | 4:44.25 | 3892 | 25216 3 | 5:36.17 | 5:09.10 | 25217 | 48401 4 | 10:45.27 | 4:59.08 | 48402 | 70834 5 | 15:44.35 | 3:31.40 | 70835 | 86699 6 | 19:16.00 | 5:19.27 | 86700 | 110651 7 | 24:35.27 | 4:29.15 | 110652 | 130841 8 | 29:04.42 | 4:08.13 | 130842 | 149454 9 | 33:12.55 | 4:46.07 | 149455 | 170911 10 | 37:58.62 | 4:52.63 | 170912 | 192874 11 | 42:51.50 | 5:25.65 | 192875 | 217314

Range status and errors

Selected range

Filename D:\My Music\Hugo - 1997 Hugo\Hugo - Hugo.wav

Peak level 100.0 % Extraction speed 4.3 X Range quality 100.0 % Test CRC 2234651B Copy CRC 2234651B Copy OK

No errors occurred

AccurateRip summary

Track 1 accurately ripped (confidence 2) [EFCE4B6C] (AR v1)Track 2 accurately ripped (confidence 2) [35A89C78] (AR v1)Track 3 accurately ripped (confidence 2) [BF00B5A6] (AR v1)Track 4 accurately ripped (confidence 2) [10CB3AE2] (AR v1)Track 5 accurately ripped (confidence 2) [DC4763CA] (AR v1)Track 6 accurately ripped (confidence 2) [0E8FBA6C] (AR v1)Track 7 accurately ripped (confidence 2) [34747046] (AR v1)Track 8 accurately ripped (confidence 2) [C67ECDBC] (AR v1)Track 9 accurately ripped (confidence 2) [F700539E] (AR v1)Track 10 accurately ripped (confidence 2) [7176E725] (AR v1)Track 11 accurately ripped (confidence 2) [01F09EF3] (AR v1)

All tracks accurately ripped

End of status report

==== Log checksum E7077D5657195FBCFA00EA21EBD9D69C84497DDECDAAF0450BEA505F3C09226C ====
Продолжительность: 55:32

Треклист:
1. Can't Stop Loving You - 5:01
2. Tell It To My Heart - 5:03
3. Last One More Time - 5:22
4. Anyone In Love - 6:17
5. Fine - 4:42
6. Blues For You - 4:35
7. This Love Song - 4:55
8. I Will Be Waiting - 4:47
9. Our Love Will Be There - 4:47
10. Magic Power (Triumph cover) - 5:21
11. Time On Earth - 5:18

Produced by Hugo & Tom Nissen

Состав группы:
Hugo - lead & background vocals, keyboards, piano, bass, drums
Joey Sykes, Adam Holland, Vinny Burns, Teddy Rondinelly - guitars
Tom Nissen, Hojo Durussel - bass
A. Zeke Dauner, Pat Masevondabak - drums
Exact Audio Copy V1.0 beta 3 from 29. August 2011

EAC extraction logfile from 25. October 2012, 20:14

Hugo / Time On Earth

Used drive : SlimtypeDVD A DS8A5SH Adapter: 0 ID: 1

Read mode : SecureUtilize accurate stream : YesDefeat audio cache : YesMake use of C2 pointers : No

Read offset correction : 6Overread into Lead-In and Lead-Out : NoFill up missing offset samples with silence : YesDelete leading and trailing silent blocks : NoNull samples used in CRC calculations : YesUsed interface : Native Win32 interface for Win NT & 2000

Used output format : User Defined EncoderSelected bitrate : 320 kBit/sQuality : HighAdd ID3 tag : NoCommand line compressor : C:\Program Files (x86)\Exact Audio Copy\Flac\flac.exeAdditional command line options : -V -8 -T "Date=%year%" -T "Genre=%genre%" %source%

TOC of the extracted CD

Track | Start | Length | Start sector | End sector --------------------------------------------------------- 1 | 0:00.00 | 4:56.10 | 0 | 22209 2 | 4:56.10 | 4:59.32 | 22210 | 44666 3 | 9:55.42 | 5:18.55 | 44667 | 68571 4 | 15:14.22 | 6:12.73 | 68572 | 96544 5 | 21:27.20 | 4:38.32 | 96545 | 117426 6 | 26:05.52 | 4:31.40 | 117427 | 137791 7 | 30:37.17 | 4:51.53 | 137792 | 159669 8 | 35:28.70 | 4:43.25 | 159670 | 180919 9 | 40:12.20 | 4:43.72 | 180920 | 202216 10 | 44:56.17 | 5:17.58 | 202217 | 226049 11 | 50:14.00 | 5:17.67 | 226050 | 249891

Range status and errors

Selected range

Filename D:\My Music\Hugo - 2000 Time On Earth\Hugo - Time On Earth.wav

Peak level 98.8 % Extraction speed 4.4 X Range quality 100.0 % Test CRC 4379EC33 Copy CRC 4379EC33 Copy OK

No errors occurred

AccurateRip summary

Track 1 not present in databaseTrack 2 not present in databaseTrack 3 not present in databaseTrack 4 not present in databaseTrack 5 not present in databaseTrack 6 not present in databaseTrack 7 not present in databaseTrack 8 not present in databaseTrack 9 not present in databaseTrack 10 not present in databaseTrack 11 not present in database

None of the tracks are present in the AccurateRip database

End of status report

==== Log checksum EE2D5B610BBEA9DBC2409196EE6D9B516F71DC1934EF8EDEE74919B870F6BC11 ====
Продолжительность: 47:22

Треклист:
1. Hand In Hand - 4:20
2. It's The Love - 3:57
3. Prelude: 4Ever Endeavor - 0:29
4. Fire In The Night - 3:51
5. I'll Learn To Live Without You - 4:16
6. Dawn - 4:38
7. Just So You Know - 3:31
8. (Don't Wanna) Say Goodbye Toni - 3:40
9. Everytime You Walk Away - 4:10
10. Just To Be With You Tonight - 3:58
11. Here I Am - 4:59
12. Hold Me - 5:49

Produced by Hugo & John Mennen

Состав группы:
Hugo - vocals
Eddie Jelley, Gus Karas - gutars
Gerrard Zappa, Joe Cumia - bass
Lance Millard - keyboards
Chuck Valenti - drums
Lauren Cembrook - viola
Exact Audio Copy V1.0 beta 3 from 29. August 2011

EAC extraction logfile from 25. October 2012, 21:22

Hugo / Fire In The Night

Used drive : SlimtypeDVD A DS8A5SH Adapter: 0 ID: 1

Read mode : SecureUtilize accurate stream : YesDefeat audio cache : YesMake use of C2 pointers : No

Read offset correction : 6Overread into Lead-In and Lead-Out : NoFill up missing offset samples with silence : YesDelete leading and trailing silent blocks : NoNull samples used in CRC calculations : YesUsed interface : Native Win32 interface for Win NT & 2000

Used output format : User Defined EncoderSelected bitrate : 320 kBit/sQuality : HighAdd ID3 tag : NoCommand line compressor : C:\Program Files (x86)\Exact Audio Copy\Flac\flac.exeAdditional command line options : -V -8 -T "Date=%year%" -T "Genre=%genre%" %source%

TOC of the extracted CD

Track | Start | Length | Start sector | End sector --------------------------------------------------------- 1 | 0:00.00 | 4:18.51 | 0 | 19400 2 | 4:18.51 | 3:55.00 | 19401 | 37025 3 | 8:13.51 | 0:27.47 | 37026 | 39097 4 | 8:41.23 | 3:49.29 | 39098 | 56301 5 | 12:30.52 | 4:14.31 | 56302 | 75382 6 | 16:45.08 | 4:36.68 | 75383 | 96150 7 | 21:22.01 | 3:29.68 | 96151 | 111893 8 | 24:51.69 | 3:38.29 | 111894 | 128272 9 | 28:30.23 | 4:08.53 | 128273 | 146925 10 | 32:39.01 | 3:56.70 | 146926 | 164695 11 | 36:35.71 | 4:57.23 | 164696 | 186993 12 | 41:33.19 | 5:48.49 | 186994 | 213142

Range status and errors

Selected range

Filename D:\My Music\Hugo - 2004 Fire In The Night\Hugo - Fire In The Night.wav

Peak level 100.0 % Extraction speed 1.8 X Range quality 99.9 % Test CRC D9C37773 Copy CRC D9C37773 Copy OK

No errors occurred

AccurateRip summary

Track 1 cannot be verified as accurate (confidence 2) [24BF825B], AccurateRip returned [3654261D] (AR v2)Track 2 cannot be verified as accurate (confidence 2) [B505761B], AccurateRip returned [E27ED9E5] (AR v2)Track 3 cannot be verified as accurate (confidence 2) [6A0D56E2], AccurateRip returned [49B662AB] (AR v2)Track 4 cannot be verified as accurate (confidence 2) [22BF7A98], AccurateRip returned [3571E55F] (AR v2)Track 5 cannot be verified as accurate (confidence 2) [93C13FF0], AccurateRip returned [5D8A8523] (AR v2)Track 6 cannot be verified as accurate (confidence 2) [0BB9F0CD], AccurateRip returned [6EB846BC] (AR v2)Track 7 cannot be verified as accurate (confidence 2) [DED0CECD], AccurateRip returned [EDAB4104] (AR v2)Track 8 cannot be verified as accurate (confidence 2) [D97E0EB2], AccurateRip returned [F4012DE9] (AR v2)Track 9 cannot be verified as accurate (confidence 2) [0A73D32F], AccurateRip returned [8869C834] (AR v2)Track 10 cannot be verified as accurate (confidence 2) [C4B9158A], AccurateRip returned [C04B784E] (AR v2)Track 11 cannot be verified as accurate (confidence 2) [05193AAA], AccurateRip returned [0DD63B76] (AR v2)Track 12 cannot be verified as accurate (confidence 2) [E3FB500D], AccurateRip returned [2443F6C3] (AR v2)

No tracks could be verified as accurateYou may have a different pressing from the one(s) in the database

End of status report

==== Log checksum EF7AD7DB4DA8D6768717102B706EFAA2E72DE14F6CFBF60C217960BEEFC3D14B ====


Трекер:  [ 09-Дек-2012 15:00 ]

  

Скачать .torrent

Размер .torrent файла 17 KB


Размер: 1.35 GB
Хэш (hash) релиза: b98395a177930d3a9b71733529543bf0e9068cec

Торренты, похожие на Hugo скачать торрент

Форум Название Автор Размер S L Добавлен
Электронная музыка (mp3) ·· (Psychedelic Trance) Maiantech (Victor Hugo Mata) - 9 Singles And EP's Collection - 2012-2016, MP3, 320 kbps Galfimbul 336284267321 MB 0 0 1510070567

19:02

7-Ноя-17

Электронная музыка (mp3) ·· (Psychedelic Trance) Interactive Noise (Hugo Venegas) feat. Jiser, Sideform, Fabio, Ace Ventura, Neelix, Eddie Bitar, Moon, Interactive Noise, Zyce, Durs, Flegma, Xanho - 26 Singles And EP's Collection - 2009-2017, MP3, 320 kbps Galfimbul 10706239751021 MB 0 0 1501484533

10:02

31-Июл-17

Электронная музыка (mp3) ·· (Trip Hop, Downtempo, Nu-Jazz) Hugo Kant - Дискография 2011-2017 (4 релиза), MP3, 320 kbps Galfimbul 520758243497 MB 0 0 1495615052

11:37

24-Май-17

Электронная музыка (lossless) ·· (Downtempo, Nu-Jazz, Trip-Hop, Instrumental, Acoustic) [WEB] Hugo Kant - Out Of Time - 2017, FLAC (tracks), lossless Galfimbul 363884946347 MB 0 0 1495313647

23:54

20-Май-17

Электронная музыка (mp3) ·· (Downtempo / Trip-Hop / Nu-Jazz) Hugo Kant - Out Of Time - 2017, MP3 (tracks), 320 kbps Galfimbul 140750078134 MB 0 0 1495265507

10:31

20-Май-17

Rосk | Mеtаl | Аltеrnаtivе, Рunk, Indереndеnt (mр3) ·· (Indie-Rock/Blues) Hugo Race And Michelangelo Russo - John Lee Hooker’s World Today - 2017, MP3, 320 kbps Galfimbul 114944692110 MB 0 0 1495229616

00:33

20-Май-17

Электронная музыка (lossless) ·· (Tech House) [WEB] Hugo - Primitive Future EP - 2017, FLAC (tracks), lossless Galfimbul 213410863204 MB 0 0 1493430798

04:53

29-Апр-17

Электронная музыка (mp3) ·· (Psychedelic Trance) Interactive Noise (Hugo Venegas) - 21 Singles And EP's Collection - 2009-2016, MP3, 320 kbps Galfimbul 991948913946 MB 0 0 1489039404

09:03

9-Мар-17

Rосk | Mеtаl | Аltеrnаtivе, Рunk, Indереndеnt (mр3) ·· (Indie-Rock/Folk) Hugo Race And True Spirit - Spirit - 2015, MP3, 320 kbps Galfimbul 10100888396 MB 0 0 1431495733

08:42

13-Май-15

Саундтреки к фильмам и мультфильмам (lossless) ·· (Easy Listening, Pop) [CD] Hugo Montenegro - The Good, The Bad And The Ugly - 1992, FLAC (tracks+.cue), lossless Galfimbul 169842588162 MB 0 0 1427260590

08:16

25-Мар-15

Электронная музыка (lossless) ·· (Progressive House) [WEB] Hugo Ibarra & Uvo - Mystery EP - 2015, FLAC (tracks), lossless Galfimbul 197654694188 MB 0 0 1426733463

05:51

19-Мар-15

Rосk | Mеtаl | Аltеrnаtivе, Рunk, Indереndеnt (mр3) ·· (Indie/Pop-Rock) Hugo - Deep In The Long Grass - 2014, MP3, 320 kbps Galfimbul 9599864392 MB 0 0 1424726753

00:25

24-Фев-15

Саундтреки к фильмам и мультфильмам (mp3) ·· (Score) 20th Century Fox: Music From The Golden Age (Alfred Newman, Franz Waxman, Bernard Herrmann, Hugo Friedhofer, Alex North, Cyril Mockridge, Victor Young, Jerry Goldsmith) - 2014 (1995), MP3 (tracks) 320 kbps Galfimbul 174806924167 MB 0 0 1421577508

13:38

18-Янв-15

Rосk | Mеtаl | Аltеrnаtivе, Рunk, Indереndеnt (mр3) ·· (Alternative Folk / Indie Rock / Gangsta Rock) Hugo - Old Tyme Religion [Thailand Edition] - 2011, MP3, 320 kbps Galfimbul 105100674100 MB 0 0 1417869078

15:31

6-Дек-14

Электронная музыка (lossless) ·· (Downtempo, Trip-Hop, Nu-Jazz) [WEB] Hugo Kant - The Point Of No Return - 2014, FLAC (tracks), lossless Galfimbul 372628495355 MB 0 0 1411807339

11:42

27-Сен-14

Зарубежный Rap, Hip-Hop, R'n'B (mp3) ·· (France/Rap/Hip-Hop/Underground) Hugo (TSR Crew) - Fenétre Sur Rue - 2012, MP3, 320 kbps Galfimbul 112962271108 MB 0 0 1375540880

17:41

3-Авг-13

Электронная музыка (mp3) ·· (House) Hugo & The Prismatics - The Consequences Of Loop (Goodvibe[GVRCD 01]) WEB - 2013, MP3, 320 kbps Galfimbul 174118919166 MB 0 0 1371306849

17:34

15-Июн-13

Электронная музыка (lossless) ·· (House) Hugo & The Prismatics - The Consequences Of Loop (WEB) - 2013, FLAC (tracks), lossless Galfimbul 477813508456 MB 0 0 1369320091

17:41

23-Май-13

Электронная музыка (mp3) ·· (House, Tech House) Hugo Sanchez and Leo Blanco - Dance (Supermarket [SMR041]) - WEB - 2012, MP3 (tracks), 320 kbps Galfimbul 6405041761 MB 0 0 1368435256

11:54

13-Май-13

Саундтреки к фильмам и мультфильмам (mp3) ·· (Score) Одноглазые валеты / One-Eyed Jacks (by Hugo Friedhofer) - 2000 (1961), MP3, 320 kbps Galfimbul 9857051794 MB 0 0 1366923360

23:56

25-Апр-13

Еще никто не оставлял запись к записи скачать торрент Hugo . Будь первым!

!Обратная связь