Скачать через торрент музыку Eclipse - Bleed And Scream бесплатно без регистрации torrent

Если у вас наблюдаются проблемы со скриншотами, переходом по ссылками, скачиванием торрентов - проблемы в блокировщике рекламы AdBlock. #хорошегоДня!


Статистика раздачи
Размер:  98 MB   |    Зарегистрирован:  4 года 8 месяцев   |    .torrent скачан:  5 раз   |   
Раздают:  1  
   
Загрузка...
 
Автор Сообщение

Galfimbul

avatar Galfimbul


Eclipse / Bleed And Scream (single)

Жанр: Melodic Hard Rock
Страна-производитель диска: E.U
Год издания: 2012
Издатель (лейбл): Cosmos Music Group
Номер по каталогу: 334 43031
Страна: Sweden
Аудиокодек: FLAC (*.flac)
Тип рипа: image+.cue
Битрейт аудио: lossless
Продолжительность: 10:52
Источник (релизер): собственный рип
Наличие сканов в содержимом раздачи: да

Треклист:
1. Bleed And Scream - 4:11 удлиненная версия с 6-секундным интро
2. Come Hell On High Water - 2:56 эксклюзив!
3. Into The Fire - 3:44 мегаэксклюзив!!!
Exact Audio Copy V1.0 beta 3 from 29. August 2011

EAC extraction logfile from 20. November 2012, 17:39

Eclipse / Bleed And Scream (Single)

Used drive : SlimtypeDVD A DS8A5SH Adapter: 0 ID: 1

Read mode : SecureUtilize accurate stream : YesDefeat audio cache : YesMake use of C2 pointers : No

Read offset correction : 6Overread into Lead-In and Lead-Out : NoFill up missing offset samples with silence : YesDelete leading and trailing silent blocks : NoNull samples used in CRC calculations : YesUsed interface : Native Win32 interface for Win NT & 2000

Used output format : User Defined EncoderSelected bitrate : 320 kBit/sQuality : HighAdd ID3 tag : NoCommand line compressor : C:\Program Files (x86)\Exact Audio Copy\Flac\flac.exeAdditional command line options : -V -8 -T "Date=%year%" -T "Genre=%genre%" %source%

TOC of the extracted CD

Track | Start | Length | Start sector | End sector --------------------------------------------------------- 1 | 0:00.00 | 4:11.33 | 0 | 18857 2 | 4:11.33 | 2:56.11 | 18858 | 32068 3 | 7:07.44 | 3:44.03 | 32069 | 48871

Range status and errors

Selected range

Filename D:\My Music\Eclipse - Bleed And Scream (single)\Eclipse - Bleed And Scream (Single).wav

Peak level 99.9 % Extraction speed 3.3 X Range quality 100.0 % Test CRC 343F2F5F Copy CRC 343F2F5F Copy OK

No errors occurred

AccurateRip summary

Track 1 accurately ripped (confidence 1) [A51FEFE1] (AR v1)Track 2 accurately ripped (confidence 1) [9E978DB9] (AR v1)Track 3 accurately ripped (confidence 1) [CE681A24] (AR v1)

All tracks accurately ripped

End of status report

==== Log checksum 42E4CCEC8D448823202B4880C8FF369C829C8E7AF3DC733F04FAC6CF84284098 ====


Трекер:  [ 09-Дек-2012 15:00 ]

  

Скачать .torrent

Размер .torrent файла 16 KB


Размер: 98 MB
Хэш (hash) релиза: 52dac150428043d5b4111b813ae522e5f58b1148

Еще никто не оставлял запись к записи скачать торрент Eclipse - Bleed And Scream . Будь первым!

!Обратная связь