Скачать через торрент музыку Smash N Grab - Inheritance Of Power - 1992, FLAC бесплатно без регистрации torrent

Если у вас наблюдаются проблемы со скриншотами, переходом по ссылками, скачиванием торрентов - проблемы в блокировщике рекламы AdBlock. #хорошегоДня!


Статистика раздачи
Размер:  333 MB   |    Зарегистрирован:  4 года 11 месяцев   |    .torrent скачан:  14 раз   |   
Раздают:  1  
   
Загрузка...
 
Автор Сообщение

Galfimbul

avatar Galfimbul


Smash N' Grab / Inheritance Of Power
Жанр: Melodic Hard Rock/Female fronted
Год издания: 1992
Издатель (лейбл): EMI Electrola
Страна: Germany
Аудиокодек: FLAC (*.flac)
Тип рипа: image+.cue
Битрейт аудио: lossless
Продолжительность: 47:46
Источник (релизер): McKagan
Наличие сканов в содержимом раздачи: нет
Треклист:
01 - Intro [00:53]
02 - Love Misled [03:40]
03 - Bad To The Bone [03:24]
04 - School's Out [04:23]
05 - Roses Are Red [04:23]
06 - Snakes And Ladders [04:13]
07 - Forever [04:31]
08 - For Valour [03:26]
09 - Dear Gabrielle [04:37]
10 - Son Of A Gun [04:54]
11 - Beat Me Daddy 8'To The Bar [04:56]
12 - She's Tattooed [04:21]
Exact Audio Copy V0.99 prebeta 4 from 23. January 2008

EAC extraction logfile from 2. March 2012, 23:58

Smash N'Grab / Inheritance Of Power

Used drive : PIONEER DVD-RW DVR-212 Adapter: 5 ID: 0

Read mode : SecureUtilize accurate stream : YesDefeat audio cache : YesMake use of C2 pointers : No

Read offset correction : 48Overread into Lead-In and Lead-Out : NoFill up missing offset samples with silence : YesDelete leading and trailing silent blocks : NoNull samples used in CRC calculations : YesUsed interface : Native Win32 interface for Win NT & 2000

Used output format : Internal WAV RoutinesSample format : 44.100 Hz; 16 Bit; Stereo

TOC of the extracted CD

Track | Start | Length | Start sector | End sector --------------------------------------------------------- 1 | 0:00.00 | 0:53.15 | 0 | 3989 2 | 0:53.15 | 3:40.23 | 3990 | 20512 3 | 4:33.38 | 3:24.47 | 20513 | 35859 4 | 7:58.10 | 4:23.20 | 35860 | 55604 5 | 12:21.30 | 4:23.70 | 55605 | 75399 6 | 16:45.25 | 4:13.28 | 75400 | 94402 7 | 20:58.53 | 4:31.52 | 94403 | 114779 8 | 25:30.30 | 3:26.10 | 114780 | 130239 9 | 28:56.40 | 4:37.45 | 130240 | 151059 10 | 33:34.10 | 4:54.28 | 151060 | 173137 11 | 38:28.38 | 4:56.65 | 173138 | 195402 12 | 43:25.28 | 4:21.20 | 195403 | 214997

Range status and errors

Selected range

Filename D:\temp\Smash N'Grab - Inheritance Of Power.wav

Peak level 100.0 % Range quality 100.0 % Copy CRC 5E6D6E52 Copy OK

No errors occurred

AccurateRip summary

Track 1 not present in databaseTrack 2 not present in databaseTrack 3 not present in databaseTrack 4 not present in databaseTrack 5 not present in databaseTrack 6 not present in databaseTrack 7 not present in databaseTrack 8 not present in databaseTrack 9 not present in databaseTrack 10 not present in databaseTrack 11 not present in databaseTrack 12 not present in database

None of the tracks are present in the AccurateRip database

End of status report
REM GENRE "Heavy Metal"REM DATE 1992REM DISCID 810B320CREM COMMENT "ExactAudioCopy v0.99pb4"PERFORMER "Smash N'Grab"TITLE "Inheritance Of Power"FILE "Smash N'Grab - Inheritance Of Power.flac" WAVE TRACK 01 AUDIO TITLE "Intro" PERFORMER "Smash N'Grab" INDEX 01 00:00:00 TRACK 02 AUDIO TITLE "Love Misled" PERFORMER "Smash N'Grab" INDEX 00 00:53:13 INDEX 01 00:53:15 TRACK 03 AUDIO TITLE "Bad To The Bone" PERFORMER "Smash N'Grab" INDEX 00 04:33:35 INDEX 01 04:33:38 TRACK 04 AUDIO TITLE "School's Out" PERFORMER "Smash N'Grab" INDEX 00 07:58:08 INDEX 01 07:58:10 TRACK 05 AUDIO TITLE "Roses Are Red" PERFORMER "Smash N'Grab" INDEX 00 12:21:28 INDEX 01 12:21:30 TRACK 06 AUDIO TITLE "Snakes And Ladders" PERFORMER "Smash N'Grab" INDEX 00 16:45:23 INDEX 01 16:45:25 TRACK 07 AUDIO TITLE "Forever" PERFORMER "Smash N'Grab" INDEX 00 20:58:50 INDEX 01 20:58:53 TRACK 08 AUDIO TITLE "For Valour" PERFORMER "Smash N'Grab" INDEX 00 25:30:28 INDEX 01 25:30:30 TRACK 09 AUDIO TITLE "Dear Gabrielle" PERFORMER "Smash N'Grab" INDEX 00 28:56:38 INDEX 01 28:56:40 TRACK 10 AUDIO TITLE "Son Of A Gun" PERFORMER "Smash N'Grab" INDEX 00 33:34:08 INDEX 01 33:34:10 TRACK 11 AUDIO TITLE "Beat Me Daddy 8'To The Bar" PERFORMER "Smash N'Grab" INDEX 00 38:28:35 INDEX 01 38:28:38 TRACK 12 AUDIO TITLE "She's Tattooed" PERFORMER "Smash N'Grab" INDEX 00 43:25:25 INDEX 01 43:25:28


Трекер:  [ 09-Дек-2012 15:00 ]

  

Скачать .torrent

Размер .torrent файла 13 KB


Размер: 333 MB
Хэш (hash) релиза: ed67ff9440aa2c2f99670d18fb81f94ffd0e67d3

Еще никто не оставлял запись к записи скачать торрент Smash N Grab - Inheritance Of Power - 1992, FLAC . Будь первым!

!Обратная связь