Скачать через торрент музыку Southern Sons - Heart In Danger бесплатно без регистрации torrent

Если у вас наблюдаются проблемы со скриншотами, переходом по ссылками, скачиванием торрентов - проблемы в блокировщике рекламы AdBlock. #хорошегоДня!


Статистика раздачи
Размер:  89 MB   |    Зарегистрирован:  4 года 10 месяцев   |    .torrent скачан:  7 раз   |   
Раздают:  1  
   
Загрузка...
 
Автор Сообщение

Galfimbul

avatar Galfimbul


Southern Sons / Heart In Danger (Single)

Жанр: AOR / Melodic Rock
Страна-производитель диска: Germany
Год издания: 1990
Издатель (лейбл): BGM
Номер по каталогу: PD49184
Страна: Australia
Аудиокодек: FLAC (*.flac)
Тип рипа: tracks+.cue
Битрейт аудио: lossless
Продолжительность: 12:50
Источник (релизер): Dimitrius40
Наличие сканов в содержимом раздачи: да
Треклист:
01. Heart In Danger
02. Out Of My Hands
03. More Than Enough
Exact Audio Copy V1.0 beta 3 from 29. August 2011

EAC extraction logfile from 22. November 2012, 20:15

Southern Sons / Heart In Danger CDS

Used drive : TSSTcorpCDDVDW SH-222AB Adapter: 1 ID: 0

Read mode : SecureUtilize accurate stream : YesDefeat audio cache : YesMake use of C2 pointers : No

Read offset correction : 6Overread into Lead-In and Lead-Out : NoFill up missing offset samples with silence : YesDelete leading and trailing silent blocks : NoNull samples used in CRC calculations : YesUsed interface : Native Win32 interface for Win NT & 2000Gap handling : Appended to previous track

Used output format : User Defined EncoderSelected bitrate : 128 kBit/sQuality : HighAdd ID3 tag : NoCommand line compressor : C:\Program Files (x86)\FLAC\flac.exeAdditional command line options : -V -8 -T "Genre=%genre%" -T "Artist=%artist%" -T "Title=%title%" -T "Album=%albumtitle%" -T "Date=%year%" -T "Tracknumber=%tracknr%" -T "Comment=%comment%" %source%

TOC of the extracted CD

Track | Start | Length | Start sector | End sector --------------------------------------------------------- 1 | 0:00.43 | 4:58.72 | 43 | 22464 2 | 4:59.40 | 4:11.33 | 22465 | 41322 3 | 9:10.73 | 3:39.45 | 41323 | 57792

Track 1

Filename E:\FLAC\Southern Sons - Heart In Danger\01 - Heart In Danger.wav

Pre-gap length 0:00:02.43

Peak level 84.2 % Extraction speed 1.8 X Track quality 100.0 % Test CRC 6F6AF490 Copy CRC 6F6AF490 Track not present in AccurateRip database Copy OK

Track 2

Filename E:\FLAC\Southern Sons - Heart In Danger\02 - Out Of My Hands.wav

Pre-gap length 0:00:02.15

Peak level 76.5 % Extraction speed 2.0 X Track quality 100.0 % Test CRC 946F0F94 Copy CRC 946F0F94 Track not present in AccurateRip database Copy OK

Track 3

Filename E:\FLAC\Southern Sons - Heart In Danger\03 - More Than Enough.wav

Pre-gap length 0:00:02.18

Peak level 91.4 % Extraction speed 2.1 X Track quality 100.0 % Test CRC 6B038657 Copy CRC 6B038657 Track not present in AccurateRip database Copy OK

None of the tracks are present in the AccurateRip database

No errors occurred

End of status report

==== Log checksum F280680E5B93A0E43FC352893E8269747D15A315388B12340817FF080A7E8EED ====
REM GENRE RockREM DATE 1990REM DISCID 12030203REM COMMENT "ExactAudioCopy v1.0b3"PERFORMER "Southern Sons"TITLE "Heart In Danger CDS"FILE "01 - Heart In Danger.wav" WAVE TRACK 01 AUDIO TITLE "Heart In Danger" PERFORMER "Southern Sons" PREGAP 00:00:43 INDEX 01 00:00:00 TRACK 02 AUDIO TITLE "Out Of My Hands" PERFORMER "Southern Sons" INDEX 00 04:56:57FILE "02 - Out Of My Hands.wav" WAVE INDEX 01 00:00:00 TRACK 03 AUDIO TITLE "More Than Enough" PERFORMER "Southern Sons" INDEX 00 04:09:15FILE "03 - More Than Enough.wav" WAVE INDEX 01 00:00:00
Southern Sons was created as a direct result of songwriter and guitarist Phil Buckle's collaboration on six of the twelve songs on John Farnham's Chain Reaction album in 1990. Buckle's group The State was signed to manager Glenn Wheatley's label Wheatley Brothers Records, and had released one album, Elementary.

Hearing Farnham's treatment of his songs, Phil Buckle wanted to replace himself as lead vocalist and recruited John Farnham sound-a-like singer and guitarist Jack Jones, who had auditioned for the band previously but was considered too young. Jones' claim to fame prior to that was playing in a Van Halen cover band Hans Valen.

The group changed its name from The State to Southern Sons after the addition of Jones and made its public debut as support act for Farnham's Chain Reaction Tour, with Buckle and Jones also having played on the album, doing double duty as members of Farnham's backing band.

1990 saw the release of their debut self-titled album, Southern Sons (which spawned three top ten hit singles) and a five-track EP, Train Tracks, released to coincide with Buckle and Jones' return to Southern Sons' duties after a European tour with Farnham.

Their second album in 1992, Nothing But The Truth, came with the departure of guitarist Peter Bowman. After two singles including "You Were There", one of three Phil Buckle songs in the Sydney Dance Company production of Beauty and the Beast, Nothing But The Truth was re-released, with different cover artwork featuring a new look Jack Jones, to include the single "Silent Witnesses". Southern Sons' third and final album, Zone, was released in 1995, self-produced with former member Peter Bowman. Its lead single, "Don't Tell Me What's Right", featured vocals from Men At Work's Colin Hay.

Jones reunited with Farnham in 1999 for his I Can't Believe He's 50 Tour and the Tour Of Duty Concert for peacekeeping Australian troops in Dili, East Timor.
Jack Jones - guitars, lead vocals
Phil Buckle - guitars, backing vocals
Virgil Donati - drums, keyboards
Geoff Cain - bass
Peter Bowman - guitars, backing vocals


Трекер:  [ 09-Дек-2012 14:59 ]

  

Скачать .torrent

Размер .torrent файла 15 KB


Размер: 89 MB
Хэш (hash) релиза: 2c61914280509b1fb814f27a39afeecc0cbd6dd1

Еще никто не оставлял запись к записи скачать торрент Southern Sons - Heart In Danger . Будь первым!

!Обратная связь