Скачать через торрент музыку Hush - Hush featuring Robert Berry - 1998 бесплатно без регистрации torrent

Если у вас наблюдаются проблемы со скриншотами, переходом по ссылками, скачиванием торрентов - проблемы в блокировщике рекламы AdBlock. #хорошегоДня!


Статистика раздачи
Размер:  369 MB   |    Зарегистрирован:  4 года 8 месяцев   |    .torrent скачан:  9 раз   |   
Раздают:  1  
   
Загрузка...
 
Автор Сообщение

Galfimbul

avatar Galfimbul


Hush / Hush featuring Robert Berry (recorded 1978-79)

Жанр: Classic Rock/AOR
Страна-производитель диска: England
Год издания: 1998
Издатель (лейбл): Escape Music Ltd.
Номер по каталогу: ESM027
Страна: U.S.A
Аудиокодек: FLAC (*.flac)
Тип рипа: image+.cue
Битрейт аудио: lossless
Продолжительность: 50:58
Источник (релизер): собственный рип
Наличие сканов в содержимом раздачи: да

Треклист:
1. Out On The Street - 4:13
2. Saturday Night - 3:16
3. Alright - 4:13
4. Rendezvous - 3:04
5. It's All Too Much - 6:03
6. You Hold The Key - 3:27
7. Money - 4:18
8. Let Me Live - 3:35
9. You - 2:43
10. A Room (+ 4 hidden tracks) - 16:01
Exact Audio Copy V1.0 beta 3 from 29. August 2011

EAC extraction logfile from 25. November 2012, 17:31

Hush / Hush featuring Robert Berry

Used drive : SlimtypeDVD A DS8A5SH Adapter: 0 ID: 1

Read mode : SecureUtilize accurate stream : YesDefeat audio cache : YesMake use of C2 pointers : No

Read offset correction : 6Overread into Lead-In and Lead-Out : NoFill up missing offset samples with silence : YesDelete leading and trailing silent blocks : NoNull samples used in CRC calculations : YesUsed interface : Native Win32 interface for Win NT & 2000

Used output format : User Defined EncoderSelected bitrate : 320 kBit/sQuality : HighAdd ID3 tag : NoCommand line compressor : C:\Program Files (x86)\Exact Audio Copy\Flac\flac.exeAdditional command line options : -V -8 -T "Date=%year%" -T "Genre=%genre%" %source%

TOC of the extracted CD

Track | Start | Length | Start sector | End sector --------------------------------------------------------- 1 | 0:00.00 | 4:13.17 | 0 | 18991 2 | 4:13.17 | 3:16.33 | 18992 | 33724 3 | 7:29.50 | 4:13.20 | 33725 | 52719 4 | 11:42.70 | 3:04.65 | 52720 | 66584 5 | 14:47.60 | 6:03.55 | 66585 | 93864 6 | 20:51.40 | 3:27.62 | 93865 | 109451 7 | 24:19.27 | 4:18.18 | 109452 | 128819 8 | 28:37.45 | 3:35.32 | 128820 | 144976 9 | 32:13.02 | 2:43.13 | 144977 | 157214 10 | 34:56.15 | 16:01.30 | 157215 | 229319

Range status and errors

Selected range

Filename D:\My Music\Hush - 1998 Hush featuring Robert Berry\Hush - Hush featuring Robert Berry.wav

Peak level 100.0 % Extraction speed 4.3 X Range quality 100.0 % Test CRC 29C056D1 Copy CRC 29C056D1 Copy OK

No errors occurred

AccurateRip summary

Track 1 not present in databaseTrack 2 not present in databaseTrack 3 not present in databaseTrack 4 not present in databaseTrack 5 not present in databaseTrack 6 not present in databaseTrack 7 not present in databaseTrack 8 not present in databaseTrack 9 not present in databaseTrack 10 not present in database

None of the tracks are present in the AccurateRip database

End of status report

==== Log checksum 1006BBB45368FE99C1991FF9F093ACB708BDC556BD37DC6E30F170B3E7BB98BB ====
HUSH featured Robert Berry, who later released some great albums with ALLIANCE,3 and a couple of solo-albums. This HUSH-album was his first musical effort. It was released in 1979 on an obscure recordlabel that went bankrupt and caused a split of the band that worked on this album between 1975-1980. They had some success in Japan and were promised to become popular in The States, something that never happened.
Their re-isued CD contains 10 tracks that is a mix of A.O.R., hard 70’s Poprock and Pomprock. Especially the midtempo aor/ pomp-classified tracks “Alright” and “It’s all too much” does sound pretty good and quite a bit like ROADMASTER at times. Tracks like “Saturday night”,”Money” and “You” are pure hard late 70’s/early 80’s uptempo poprockers like a mix of RICK SPRINGFIELD’s early 80’s material and RUSS BALLARD’s albums ‘Barnet dogs’ and ‘Into the fire’. Combine these elements and you will know how this album sounds. A pretty good album and if you like some of the mentioned acts in this review, you must get yourself a copy of this CD.


Трекер:  [ 09-Дек-2012 14:59 ]

  

Скачать .torrent

Размер .torrent файла 15 KB


Размер: 369 MB
Хэш (hash) релиза: 202dd39786b8955ff555eaa2e8604302e5b8f340

Еще никто не оставлял запись к записи скачать торрент Hush - Hush featuring Robert Berry - 1998 . Будь первым!

!Обратная связь