Скачать через торрент музыку Blackfish - Blackfish - 1993, APE бесплатно без регистрации torrent

Если у вас наблюдаются проблемы со скриншотами, переходом по ссылками, скачиванием торрентов - проблемы в блокировщике рекламы AdBlock. #хорошегоДня!


Статистика раздачи
Размер:  299 MB   |    Зарегистрирован:  4 года 11 месяцев   |    .torrent скачан:  6 раз   |   
Раздают:  1  
   
Загрузка...
 
Автор Сообщение

Galfimbul

avatar Galfimbul


Blackfish / Blackfish

Жанр: melodic hard rock
Страна-производитель диска: USA
Год издания: 1993
Издатель (лейбл): Epic
Номер по каталогу: EK 53233
Страна: USA
Аудиокодек: APE (*.ape)
Тип рипа: image+.cue
Битрейт аудио: lossless
Источник (релизер): свой рипъ
Наличие сканов в содержимом раздачи: нет
Треклист:
01. The Fall
02. I Don't Care
03. The Only One
04. Easy As Saying Goodbye
05. Turn Around
06. If I
07. Sweet Sixteen
08. Down For The Count
09. I Wanna Know
10. Sugar Shack
11. Check It Out
12. Hey Julie
13. I Believe In You
Exact Audio Copy V0.99 prebeta 4 from 23. January 2008

EAC extraction logfile from 26. November 2012, 19:04

Blackfish / Blackfish

Used drive : PIONEER DVD-RW DVR-212 Adapter: 5 ID: 0

Read mode : SecureUtilize accurate stream : YesDefeat audio cache : YesMake use of C2 pointers : No

Read offset correction : 48Overread into Lead-In and Lead-Out : NoFill up missing offset samples with silence : YesDelete leading and trailing silent blocks : NoNull samples used in CRC calculations : YesUsed interface : Native Win32 interface for Win NT & 2000

Used output format : Internal WAV RoutinesSample format : 44.100 Hz; 16 Bit; Stereo

TOC of the extracted CD

Track | Start | Length | Start sector | End sector --------------------------------------------------------- 1 | 0:00.00 | 3:55.05 | 0 | 17629 2 | 3:55.05 | 3:35.58 | 17630 | 33812 3 | 7:30.63 | 4:40.22 | 33813 | 54834 4 | 12:11.10 | 3:06.30 | 54835 | 68814 5 | 15:17.40 | 3:09.13 | 68815 | 83002 6 | 18:26.53 | 3:50.02 | 83003 | 100254 7 | 22:16.55 | 3:34.70 | 100255 | 116374 8 | 25:51.50 | 3:29.45 | 116375 | 132094 9 | 29:21.20 | 3:39.03 | 132095 | 148522 10 | 33:00.23 | 4:03.65 | 148523 | 166812 11 | 37:04.13 | 2:19.27 | 166813 | 177264 12 | 39:23.40 | 2:40.03 | 177265 | 189267 13 | 42:03.43 | 3:24.47 | 189268 | 204614

Range status and errors

Selected range

Filename D:\temp\Blackfish - Blackfish.wav

Peak level 100.0 % Range quality 100.0 % Copy CRC 056E753F Copy OK

No errors occurred

AccurateRip summary

Track 1 accurately ripped (confidence 5) [5C5B231A]Track 2 accurately ripped (confidence 5) [A36BB309]Track 3 accurately ripped (confidence 5) [9A1F0270]Track 4 accurately ripped (confidence 5) [F51BE563]Track 5 accurately ripped (confidence 5) [05ED0D73]Track 6 accurately ripped (confidence 5) [E32D8063]Track 7 accurately ripped (confidence 5) [8EAC78A7]Track 8 accurately ripped (confidence 5) [469E9B1F]Track 9 accurately ripped (confidence 5) [0603C0E6]Track 10 accurately ripped (confidence 5) [41E07C5E]Track 11 accurately ripped (confidence 5) [DC657A47]Track 12 accurately ripped (confidence 5) [5B3500A7]Track 13 accurately ripped (confidence 5) [F3C09514]

All tracks accurately ripped

End of status report


Трекер:  [ 09-Дек-2012 14:59 ]

  

Скачать .torrent

Размер .torrent файла 24 KB


Размер: 299 MB
Хэш (hash) релиза: 5cd135952e52bfd1df27e5fbb14ea0a0ce7e6a93

Еще никто не оставлял запись к записи скачать торрент Blackfish - Blackfish - 1993, APE . Будь первым!

!Обратная связь