Скачать через торрент музыку Enrico Ruggeri - La vie en rouge бесплатно без регистрации torrent

Если у вас наблюдаются проблемы со скриншотами, переходом по ссылками, скачиванием торрентов - проблемы в блокировщике рекламы AdBlock. #хорошегоДня!


Статистика раздачи
Размер:  940 MB   |    Зарегистрирован:  4 года 11 месяцев   |    .torrent скачан:  8 раз   |   
Раздают:  1  
   
Загрузка...
 
Автор Сообщение

Galfimbul

avatar Galfimbul


Enrico Ruggeri / La vie en rouge

Жанр: Pop-Rock
Страна-производитель диска: Италия
Год издания: 2002
Издатель (лейбл): Sony Music Entertainment
Номер по каталогу: COL 504107 9
Страна: Италия
Аудиокодек: FLAC (*.flac)
Тип рипа: image+.cue
Битрейт аудио: lossless
Продолжительность: 00:56:54+01:00:55
Источник (релизер): CD
Наличие сканов в содержимом раздачи: да
Треклист:
CD 1
01. Primavera a Sarajevo
02. La Vie en Rouge
03. Rien Ne Va Plus
04. Certe Donne
05. Quello Che Le Donne Non Dicono
06. Bratiska
07. Il Portiere di Notte
08. Con la Memoria
09. Il Giudizio Universale
10. Nuovo Swing
11. Ulisse/Fango e Stelle
12. Mistero
13. Peter Pan

CD 2
01. I Naviganti
02. Quante Vite Avrei Voluto
03. Polvere
04. La Bandiera
05. Vola Via
06. Gimondi e il Cannibale
07. Prima Del Temporale
08. I Dubbi Dell'amore
09. Il Futuro e' Un'ipotesi
10. Marta Che Parla Con Dio
11. Anna e il Freddo Che Ha
12. Il Mare D'inverno
13. Contessa
Exact Audio Copy V1.0 beta 3 from 29. August 2011

Отчёт EAC об извлечении, выполненном 3. ноября 2012, 23:50

Enrico Ruggeri / La vie en rouge

Дисковод: HL-DT-STDVDRAM GH22NS40 Adapter: 1 ID: 1

Режим чтения : ДостоверностьИспользование точного потока : ДаОтключение кэша аудио : ДаИспользование указателей C2 : Нет

Коррекция смещения при чтении : 667Способность читать области Lead-in и Lead-out : НетЗаполнение пропущенных сэмплов тишиной : ДаУдаление блоков с тишиной в начале и конце : НетПри вычислениях CRC использовались нулевые сэмплы : ДаИнтерфейс : Встроенный Win32-интерфейс для Win NT/2000

Выходной формат : Пользовательский кодировщикВыбранный битрейт : 768 kBit/sКачество : ВысокийДобавление ID3-тега : НетУтилита сжатия : C:\Program Files\Exact Audio Copy\FLAC\FLAC.EXEДополнительные параметры : -8 -V -T "ARTIST=%artist%" -T "TITLE=%title%" -T "ALBUM=%albumtitle%" -T "DATE=%year%" -T "TRACKNUMBER=%tracknr%" -T "GENRE=%genre%" -T "COMMENT=%comment%" -T "BAND=%albuminterpret%" -T "ALBUMARTIST=%albuminterpret%" -T "COMPOSER=%composer%" %haslyrics%--tag-from-file=LYRICS="%lyricsfile%"%haslyrics% -T "DISCNUMBER=%cdnumber%" -T "TOTALDISCS=%totalcds%" -T "TOTALTRACKS=%numtracks%" %hascover%--picture="%coverfile%"%hascover% %source% -o %dest%

TOC извлечённого CD

Трек | Старт | Длительность | Начальный сектор | Конечный сектор --------------------------------------------------------------------- 1 | 0:00.00 | 3:46.24 | 0 | 16973 2 | 3:46.24 | 4:09.46 | 16974 | 35694 3 | 7:55.70 | 4:55.62 | 35695 | 57881 4 | 12:51.57 | 3:59.65 | 57882 | 75871 5 | 16:51.47 | 4:34.48 | 75872 | 96469 6 | 21:26.20 | 3:34.50 | 96470 | 112569 7 | 25:00.70 | 5:28.62 | 112570 | 137231 8 | 30:29.57 | 3:17.44 | 137232 | 152050 9 | 33:47.26 | 3:39.47 | 152051 | 168522 10 | 37:26.73 | 5:19.71 | 168523 | 192518 11 | 42:46.69 | 4:41.14 | 192519 | 213607 12 | 47:28.08 | 4:06.51 | 213608 | 232108 13 | 51:34.59 | 5:20.10 | 232109 | 256118

Характеристики диапазона извлечения и сообщения об ошибках

Выбранный диапазон

Имя файла C:\Users\rugantino\Music\Enrico Ruggeri - La vie en rouge (2002) 2CD FLAC, lossless\Enrico Ruggeri - La vie en rouge.wav

Пиковый уровень 100.0 % Скорость извлечения 2.0 X Качество диапазона 100.0 % CRC теста 95C2DF97 CRC копии 95C2DF97 Копирование... OK

Ошибок не произошло

AccurateRip: сводка

Трек 1 : извлечено точно (доверие 2) [F9C305D1] (AR v1)Трек 2 : извлечено точно (доверие 2) [2C835FF6] (AR v1)Трек 3 : извлечено точно (доверие 2) [31E36896] (AR v1)Трек 4 : извлечено точно (доверие 2) [0A6F40CB] (AR v1)Трек 5 : извлечено точно (доверие 2) [3C2E4B1A] (AR v1)Трек 6 : извлечено точно (доверие 2) [97DB1D3F] (AR v1)Трек 7 : извлечено точно (доверие 2) [4FAD9C75] (AR v1)Трек 8 отсутствует в базе данныхТрек 9 : извлечено точно (доверие 2) [EE75CFD5] (AR v1)Трек 10 : извлечено точно (доверие 2) [F587F990] (AR v1)Трек 11 : извлечено точно (доверие 2) [5DADBDC7] (AR v1)Трек 12 отсутствует в базе данныхТрек 13 : извлечено точно (доверие 2) [AF62F2E0] (AR v1)

11 трек(и) скопированы точно 2 трек(и) не содержатся в базе AccurateRip

Некоторые треки не прошли проверку на точность

Конец отчёта

---- CUETools DB Plugin V2.1.3

[CTDB TOCID: UjGWB5kSafoAmK_H6wpSC.IsYL4-] disk not present in database, Submit result: UjGWB5kSafoAmK_H6wpSC.IsYL4- has been uploaded

==== Контрольная сумма отчёта 0B7EFD6842386CA739D8214E04E508378A839792EFC731C558D04390C3B22390 ====
Exact Audio Copy V1.0 beta 3 from 29. August 2011

Отчёт EAC об извлечении, выполненном 5. ноября 2012, 3:48

Enrico Ruggeri / La vie en rouge 2

Дисковод: HL-DT-STDVDRAM GH22NS40 Adapter: 1 ID: 1

Режим чтения : ДостоверностьИспользование точного потока : ДаОтключение кэша аудио : ДаИспользование указателей C2 : Нет

Коррекция смещения при чтении : 667Способность читать области Lead-in и Lead-out : НетЗаполнение пропущенных сэмплов тишиной : ДаУдаление блоков с тишиной в начале и конце : НетПри вычислениях CRC использовались нулевые сэмплы : ДаИнтерфейс : Встроенный Win32-интерфейс для Win NT/2000

Выходной формат : Пользовательский кодировщикВыбранный битрейт : 768 kBit/sКачество : ВысокийДобавление ID3-тега : НетУтилита сжатия : C:\Program Files\Exact Audio Copy\FLAC\FLAC.EXEДополнительные параметры : -8 -V -T "ARTIST=%artist%" -T "TITLE=%title%" -T "ALBUM=%albumtitle%" -T "DATE=%year%" -T "TRACKNUMBER=%tracknr%" -T "GENRE=%genre%" -T "COMMENT=%comment%" -T "BAND=%albuminterpret%" -T "ALBUMARTIST=%albuminterpret%" -T "COMPOSER=%composer%" %haslyrics%--tag-from-file=LYRICS="%lyricsfile%"%haslyrics% -T "DISCNUMBER=%cdnumber%" -T "TOTALDISCS=%totalcds%" -T "TOTALTRACKS=%numtracks%" %hascover%--picture="%coverfile%"%hascover% %source% -o %dest%

TOC извлечённого CD

Трек | Старт | Длительность | Начальный сектор | Конечный сектор --------------------------------------------------------------------- 1 | 0:00.00 | 3:50.48 | 0 | 17297 2 | 3:50.48 | 4:55.61 | 17298 | 39483 3 | 8:46.34 | 4:46.04 | 39484 | 60937 4 | 13:32.38 | 4:49.68 | 60938 | 82680 5 | 18:22.31 | 4:31.01 | 82681 | 103006 6 | 22:53.32 | 6:13.32 | 103007 | 131013 7 | 29:06.64 | 4:17.37 | 131014 | 150325 8 | 33:24.26 | 5:04.43 | 150326 | 173168 9 | 38:28.69 | 4:42.18 | 173169 | 194336 10 | 43:11.12 | 4:12.37 | 194337 | 213273 11 | 47:23.49 | 4:45.59 | 213274 | 234707 12 | 52:09.33 | 4:39.11 | 234708 | 255643 13 | 56:48.44 | 4:06.57 | 255644 | 274150

Характеристики диапазона извлечения и сообщения об ошибках

Выбранный диапазон

Имя файла C:\Users\rugantino\Music\Enrico Ruggeri - La vie en rouge (2002) 2CD FLAC, lossless\Enrico Ruggeri - La vie en rouge 2.wav

Пиковый уровень 99.9 % Скорость извлечения 2.1 X Качество диапазона 99.9 % CRC теста 176A703D CRC копии 176A703D Копирование... OK

Ошибок не произошло

AccurateRip: сводка

Трек 1 отсутствует в базе данныхТрек 2 отсутствует в базе данныхТрек 3 отсутствует в базе данныхТрек 4 отсутствует в базе данныхТрек 5 отсутствует в базе данныхТрек 6 отсутствует в базе данныхТрек 7 отсутствует в базе данныхТрек 8 отсутствует в базе данныхТрек 9 отсутствует в базе данныхТрек 10 отсутствует в базе данныхТрек 11 отсутствует в базе данныхТрек 12 отсутствует в базе данныхТрек 13 отсутствует в базе данных

Ни одного трека нет в базе AccurateRip

Конец отчёта

---- CUETools DB Plugin V2.1.3

[CTDB TOCID: VZtJPXmIMFu3zCxmSdtHCFDEaz8-] disk not present in database, Submit result: VZtJPXmIMFu3zCxmSdtHCFDEaz8- has been uploaded

==== Контрольная сумма отчёта 8F6EA9A72DD18EF8E0363C75FE175FAE2AFCECC2A8AC95C89CCFAACCDA633316 ====
Энрико Руджери - один из самых плодотворных и популярных певцов Италии. Родился в Милане 5-го июня 1957-го года. Многократный участник фестиваля в Санремо, дважды там побеждавший: в первый раз - в 1987-м, в составе трио Тоцци-Моранди-Руджери, с песней "Si puo` dare di piu`", а во второй - уже сольно, в 1993-м, с песней "Mistero". Он выпускает альбомы почти каждый год, часто выступает в различных телевизионных передачах, а также долгие годы играл в футбольной сборной Италии, составленной из эстрадных звёзд.
Последний его диск - "Le canzoni ai testimoni" - вышел 24-го января 2012-го и представлял из себя сборник ремиксов собственных песен, исполненных с разными группами и певцами.

ENRICO RUGGERI - SITO UFFICIALE
http://www.enricoruggeri.info/
"La vie en rouge" является концертным альбомом. Запись сделана в 2001-м, и в том же году вышел двойной диск, в который, кроме самого концерта, были включены две новые песни: "La vie en rouge" и "Quante vite avrei voluto". Год спустя альбом был переиздан с добавлением двух других новинок: "I naviganti" и исполненной в 2002-м на фестивале в Санремо "Primavera a Sarajevo". Именно это переиздание и предлагается вашему вниманию.


Трекер:  [ 09-Дек-2012 14:59 ]

  

Скачать .torrent

Размер .torrent файла 21 KB


Размер: 940 MB
Хэш (hash) релиза: 27f6d9fb20408d5a8d358d9b4565639501d976

Еще никто не оставлял запись к записи скачать торрент Enrico Ruggeri - La vie en rouge . Будь первым!

!Обратная связь