Скачать через торрент музыку Ben Folds Five - Whatever And Ever Amen бесплатно без регистрации torrent

Если у вас наблюдаются проблемы со скриншотами, переходом по ссылками, скачиванием торрентов - проблемы в блокировщике рекламы AdBlock. #хорошегоДня!


Статистика раздачи
Размер:  308 MB   |    Зарегистрирован:  4 года 11 месяцев   |    .torrent скачан:  3 раза   |   
Раздают:  1  
   
Загрузка...
 
Автор Сообщение

Galfimbul

avatar Galfimbul


Ben Folds Five / Whatever And Ever Amen

Жанр: Alternative Rock / Power Pop
Страна-производитель диска: Japan
Год издания: 1997
Издатель (лейбл): Epic
Номер по каталогу: ESCA 6642
Страна: US
Аудиокодек: APE (*.ape)
Тип рипа: image+.cue
Битрейт аудио: lossless
Продолжительность: 00:55:54
Источник (релизер): avax
Наличие сканов в содержимом раздачи: нет
Треклист:
01 One Angry Dwarf And 200 Solemn Faces 3:52
02 Fair 5:55
03 Brick 4:53
04 Song For The Dumped 3:39
05 Selfless, Cold And Composed 6:10
06 Kate 3:13
07 Smoke 4:52
08 Cigarette 1:38
09 Stevens Last Night In Town 3:27
10 Battle Of Who Could Care Less 3:16
11 Missing The War 4:19
12 Evaporated 5:41
13 bonus (Song For The Dumped, Japanese extended version) 6:16
Exact Audio Copy V1.0 beta 3 from 29. August 2011

EAC extraction logfile from 14. July 2012, 13:31

Ben Folds Five / Whatever And Ever Amen

Used drive : PIONEER BD-RW BDR-206 Adapter: 2 ID: 3

Read mode : SecureUtilize accurate stream : YesDefeat audio cache : YesMake use of C2 pointers : No

Read offset correction : 667Overread into Lead-In and Lead-Out : NoFill up missing offset samples with silence : YesDelete leading and trailing silent blocks : NoNull samples used in CRC calculations : YesUsed interface : Native Win32 interface for Win NT & 2000

Used output format : User Defined EncoderSelected bitrate : 896 kBit/sQuality : HighAdd ID3 tag : NoCommand line compressor : C:\Program Files\FLAC\flac.exeAdditional command line options : -5 -T "Artist=%artist%" -T "Title=%title%" -T "Album=%albumtitle%" -T "Date=%year%" -T "Tracknumber=%tracknr%" -T "Genre=%genre%" %source% -o %dest%

TOC of the extracted CD

Track | Start | Length | Start sector | End sector --------------------------------------------------------- 1 | 0:00.00 | 3:52.32 | 0 | 17431 2 | 3:52.32 | 5:55.48 | 17432 | 44104 3 | 9:48.05 | 4:43.00 | 44105 | 65329 4 | 14:31.05 | 3:39.57 | 65330 | 81811 5 | 18:10.62 | 6:10.25 | 81812 | 109586 6 | 24:21.12 | 3:13.42 | 109587 | 124103 7 | 27:34.54 | 4:52.16 | 124104 | 146019 8 | 32:26.70 | 1:38.17 | 146020 | 153386 9 | 34:05.12 | 3:27.53 | 153387 | 168964 10 | 37:32.65 | 3:16.37 | 168965 | 183701 11 | 40:49.27 | 4:19.35 | 183702 | 203161 12 | 45:08.62 | 4:29.20 | 203162 | 223356 13 | 49:38.07 | 6:16.30 | 223357 | 251586

Range status and errors

Selected range

Filename I:\=== VINYL RIPS ===\=== EAC===\X FRESH RIP\Ben Folds Five - Whatever And Ever Amen.wav

Peak level 100.0 % Extraction speed 1.1 X Range quality 100.0 % Test CRC BEF36329 Copy CRC BEF36329 Copy OK

No errors occurred

AccurateRip summary

Track 1 accurately ripped (confidence 3) [59108F2F] (AR v2)Track 2 accurately ripped (confidence 3) [9F27E5CE] (AR v2)Track 3 accurately ripped (confidence 3) [0EB64D40] (AR v2)Track 4 accurately ripped (confidence 3) [61A7B92B] (AR v2)Track 5 accurately ripped (confidence 3) [41236624] (AR v2)Track 6 accurately ripped (confidence 3) [074915F1] (AR v2)Track 7 accurately ripped (confidence 3) [A41C1DC8] (AR v2)Track 8 accurately ripped (confidence 3) [91EBC159] (AR v2)Track 9 accurately ripped (confidence 3) [62282356] (AR v2)Track 10 accurately ripped (confidence 3) [D40AB36D] (AR v2)Track 11 accurately ripped (confidence 3) [B73F7FF0] (AR v2)Track 12 accurately ripped (confidence 3) [BDEDC638] (AR v2)Track 13 accurately ripped (confidence 3) [C8888FAC] (AR v2)

All tracks accurately ripped

End of status report

---- CUETools DB Plugin V2.1.3

[CTDB TOCID: LWrPmgSBsM8N28Svb0EaVT0MVXM-] found, Submit result: LWrPmgSBsM8N28Svb0EaVT0MVXM- has been confirmed[39de51cd] (1/1) Accurately ripped

==== Log checksum 87B189F7A017207F3F5B2D0EEEE1351CEE454A64D83B0ACEA0B192EB72AFB083 ====
AUDIOCHECKER v2.0 beta (build 457) - by Dester - <a href="mailto:opdester@freemail.hu" class="postLink">opdester@freemail.hu</a>~~~~~~~~~~~~~~~~~~~~~~~~~~~~~~~~~~-=== DO NOT EDIT THIS FILE! ===-

Path: ...\Temp

1 -=- Ben Folds Five - Whatever And Ever Amen.wav -=- CDDA (100%)

266799988


Трекер:  [ 09-Дек-2012 14:59 ]

  

Скачать .torrent

Размер .torrent файла 13 KB


Размер: 308 MB
Хэш (hash) релиза: 476c79db5273ffc8b2d9e5426cfe03f6991165a7

Еще никто не оставлял запись к записи скачать торрент Ben Folds Five - Whatever And Ever Amen . Будь первым!

!Обратная связь