Скачать через торрент музыку The Go-Gos - Vacation - 1981 бесплатно без регистрации torrent

Если у вас наблюдаются проблемы со скриншотами, переходом по ссылками, скачиванием торрентов - проблемы в блокировщике рекламы AdBlock. #хорошегоДня!


Статистика раздачи
Размер:  245 MB   |    Зарегистрирован:  4 года 8 месяцев   |    .torrent скачан:  16 раз   |   
Раздают:  1  
   
Загрузка...
 
Автор Сообщение

Galfimbul

avatar Galfimbul


The Go-Go's / Vacation

Жанр: Pop rock, New wave
Страна-производитель диска: U.S.A.
Год издания: 1981
Издатель (лейбл): I.R.S. Records (A&M Records)
Номер по каталогу: 069 490 388-2
Страна: U.S.A.
Аудиокодек: FLAC (*.flac)
Тип рипа: image+.cue
Битрейт аудио: lossless
Продолжительность: 32:17
Источник (релизер): Собственный рип
Наличие сканов в содержимом раздачи: нет
Треклист:
1. Vacation – 2:59
2. He's So Strange – 2:58
3. Girl of 100 Lists – 2:20
4. We Don't Get Along – 2:46
5. I Think It's Me – 2:42
6. It's Everything But Partytime – 3:21
7. Get Up and Go – 3:18
8. This Old Feeling – 3:06
9. Cool Jerk – 2:53
10. The Way You Dance – 2:56
11. Beatnik Beach – 2:53
12. Worlds Away – 4:00
Exact Audio Copy V1.0 beta 3 from 29. August 2011

Отчёт EAC об извлечении, выполненном 5. ноября 2012, 17:37

The Go-Go's / Vacation

Дисковод: Optiarc BDRW BD-M100A Adapter: 1 ID: 0

Режим чтения : ДостоверностьИспользование точного потока : ДаОтключение кэша аудио : НетИспользование указателей C2 : Нет

Коррекция смещения при чтении : 102Способность читать области Lead-in и Lead-out : НетЗаполнение пропущенных сэмплов тишиной : ДаУдаление блоков с тишиной в начале и конце : НетПри вычислениях CRC использовались нулевые сэмплы : ДаИнтерфейс : Встроенный Win32-интерфейс для Win NT/2000

Выходной формат : Пользовательский кодировщикВыбранный битрейт : 768 kBit/sКачество : ВысокийДобавление ID3-тега : НетУтилита сжатия : C:\Program Files (x86)\Exact Audio Copy\FLAC\FLAC.EXEДополнительные параметры : -6 -V -T "ARTIST=%artist%" -T "TITLE=%title%" -T"ALBUM=%albumtitle%" -T "DATE=%year%" -T "TRACKNUMBER=%tracknr%" -T"GENRE=%genre%" -T "COMMENT=%comment%" -T "BAND=%albuminterpret%" -T"ALBUMARTIST=%albuminterpret%" -T "COMPOSER=%composer%" %haslyrics%--tag-from-file=LYRICS="%lyricsfile%"%haslyrics% -T "DISCNUMBER=%cdnumber%" -T "TOTALDISCS=%totalcds%" -T "TOTALTRACKS=%numtracks%" %hascover%--picture="%coverfile%"%hascover% %source% -o %dest%

TOC извлечённого CD

Трек | Старт | Длительность | Начальный сектор | Конечный сектор --------------------------------------------------------------------- 1 | 0:00.00 | 2:59.62 | 0 | 13486 2 | 2:59.62 | 2:58.63 | 13487 | 26899 3 | 5:58.50 | 2:20.55 | 26900 | 37454 4 | 8:19.30 | 2:46.60 | 37455 | 49964 5 | 11:06.15 | 2:42.05 | 49965 | 62119 6 | 13:48.20 | 3:21.52 | 62120 | 77246 7 | 17:09.72 | 3:18.70 | 77247 | 92166 8 | 20:28.67 | 3:06.30 | 92167 | 106146 9 | 23:35.22 | 2:53.05 | 106147 | 119126 10 | 26:28.27 | 2:56.28 | 119127 | 132354 11 | 29:24.55 | 2:53.50 | 132355 | 145379 12 | 32:18.30 | 4:00.02 | 145380 | 163381

Характеристики диапазона извлечения и сообщения об ошибках

Выбранный диапазон

Имя файла C:\Users\Anton\Music\Music\the go-go's\1982 - vacation\The Go-Go's - Vacation.wav

Пиковый уровень 100.0 % Скорость извлечения 7.0 X Качество диапазона 100.0 % CRC копии CC85108A Копирование... OK

Ошибок не произошло

AccurateRip: сводка

Трек 1 : извлечено точно (доверие 7) [65403ED5] (AR v1)Трек 2 : извлечено точно (доверие 7) [35CCF905] (AR v1)Трек 3 : извлечено точно (доверие 7) [A742E6AF] (AR v1)Трек 4 : извлечено точно (доверие 7) [502A6843] (AR v1)Трек 5 : извлечено точно (доверие 7) [57377CE5] (AR v1)Трек 6 : извлечено точно (доверие 7) [BB4062B0] (AR v1)Трек 7 : извлечено точно (доверие 7) [659B4EAD] (AR v1)Трек 8 : извлечено точно (доверие 7) [20D18AE5] (AR v1)Трек 9 : извлечено точно (доверие 7) [662C34E8] (AR v1)Трек 10 : извлечено точно (доверие 7) [00708E84] (AR v1)Трек 11 : извлечено точно (доверие 7) [F36F65C7] (AR v1)Трек 12 : извлечено точно (доверие 7) [F5D1905F] (AR v1)

Все треки извлечены точно

Конец отчёта

---- CUETools DB Plugin V2.1.3

[CTDB TOCID: g45rtD1jterfaVa_zfKzrgkOe84-] found, Submit result: g45rtD1jterfaVa_zfKzrgkOe84- has been confirmed[ff53ac34] (23/23) Accurately ripped
Доп. информация: Ремастированное издание 1999 года.
Belinda Carlisle: lead vocals
Charlotte Caffey: lead guitar, keyboards, background vocals
Gina Schock: drums, percussion, background vocals
Kathy Valentine: bass guitar, background vocals
Jane Wiedlin: rhythm guitar, vocals


Трекер:  [ 09-Дек-2012 14:59 ]

  

Скачать .torrent

Размер .torrent файла 19 KB


Размер: 245 MB
Хэш (hash) релиза: 8b609f43f643e163edba3d88570a1c4160b90557

Еще никто не оставлял запись к записи скачать торрент The Go-Gos - Vacation - 1981 . Будь первым!

!Обратная связь